Loading...
Error
 

Скачать торрент (Eurodance, Euro-House) E-Type - Russian Lullaby (1998) [FLAC|Lossless|image + .cue]

 
Автор Сообщение

Alexsandr4539

post 21-Сен-22 21:15

pic
E-Type - Russian Lullaby (1998)

Год выпуска: 1998
Жанр: Eurodance, Euro-House
Издание: Stockholm Records
Продолжительность: 01:13:46
Кодек: FLAC
Битрейт: Lossless
Тип рипа: image + .cue
Рип: шарик-off
Треклист:
01. Russian Lullaby (3:14)
02. Until the End (3:32)
03. When Religion Comes to Town (3:23)
04. You Will Always Be A Part of Me (4:08)
05. Back in the Loop (3:28)
06. Set the World on Fire (3:45)
07. This is the Way (3:57)
08. So Dem a Com (3:32)
09. I Just Wanna Be with You (3:53)
10. You Know (3:58)
11. Calling Your Name (3:39)
12. Me No Want Miseria (Take Me to the End) (4:50)
13. Will I See You Again? (4:01)
14. Fall from the Sky (3:27)
Продолжение треклиста:
5. Fight it Back (3:29)
16. Do You Always (Have to Be Alone)? (4:09)
17. I'm Not Alone (4:34)
18. So Dem A Com (Explorer Version) (4:50)
19. Set the World on Fire (Unplugged Version) (3:59)

Отчёт EAC:
Exact Audio Copy V1.3 from 2. September 2016

EAC extraction logfile from 14. March 2018, 22:58

E-Type / Russian Lullaby

Used drive : ASUS DRW-24D5MT Adapter: 0 ID: 1

Read mode : Secure
Utilize accurate stream : Yes
Defeat audio cache : Yes
Make use of C2 pointers : No

Read offset correction : 6
Overread into Lead-In and Lead-Out : No
Fill up missing offset samples with silence : Yes
Delete leading and trailing silent blocks : No
Null samples used in CRC calculations : Yes
Used interface : Installed external ASPI interface

Used output format : User Defined Encoder
Selected bitrate : 768 kBit/s
Quality : High
Add ID3 tag : No
Command line compressor : C:\Program Files (x86)\Exact Audio Copy\Flac\flac.exe
Additional command line options : -8 -V -T "TITLE=%title%" -T "ARTIST=%artist%" -T "ALBUMARTIST=%albumartist%" -T "ALBUM=%albumtitle%" -T "DATE=%year%" -T "TRACKNUMBER=%tracknr%" -T "TRACKTOTAL=%numtracks%" -T "GENRE=%genre%" -T "COMMENT=%comment%" -T "PERFORMER=%albuminterpret%" -T "COMPOSER=%composer%" %source% -o %dest%

TOC of the extracted CD

Track | Start | Length | Start sector | End sector
---------------------------------------------------------
1 | 0:00.00 | 3:13.64 | 0 | 14538
2 | 3:13.64 | 3:32.05 | 14539 | 30443
3 | 6:45.69 | 3:22.38 | 30444 | 45631
4 | 10:08.32 | 4:07.56 | 45632 | 64212
5 | 14:16.13 | 3:27.43 | 64213 | 79780
6 | 17:43.56 | 3:45.30 | 79781 | 96685
7 | 21:29.11 | 3:56.43 | 96686 | 114428
8 | 25:25.54 | 3:31.43 | 114429 | 130296
9 | 28:57.22 | 3:53.04 | 130297 | 147775
10 | 32:50.26 | 3:58.33 | 147776 | 165658
11 | 36:48.59 | 3:39.24 | 165659 | 182107
12 | 40:28.08 | 4:49.43 | 182108 | 203825
13 | 45:17.51 | 4:01.17 | 203826 | 221917
14 | 49:18.68 | 3:26.42 | 221918 | 237409
15 | 52:45.35 | 3:28.51 | 237410 | 253060
16 | 56:14.11 | 4:09.12 | 253061 | 271747
17 | 60:23.23 | 4:33.55 | 271748 | 292277
18 | 64:57.03 | 4:50.21 | 292278 | 314048
19 | 69:47.24 | 3:59.05 | 314049 | 331978

Range status and errors

Selected range

Filename C:\Music\E-Type - Russian Lullaby.wav

Peak level 100.0 %
Extraction speed 2.1 X
Range quality 100.0 %
Test CRC 0273166B
Copy CRC 0273166B
Copy OK

No errors occurred

AccurateRip summary

Track 1 not present in database
Track 2 not present in database
Track 3 not present in database
Track 4 not present in database
Track 5 not present in database
Track 6 not present in database
Track 7 not present in database
Track 8 not present in database
Track 9 not present in database
Track 10 not present in database
Track 11 not present in database
Track 12 not present in database
Track 13 not present in database
Track 14 not present in database
Track 15 not present in database
Track 16 not present in database
Track 17 not present in database
Track 18 not present in database
Track 19 not present in database

None of the tracks are present in the AccurateRip database

End of status report

---- CUETools DB Plugin V2.1.6

[CTDB TOCID: 3SpAjkHjOnVS9jJCZUVHS6BJ2_g-] disk not present in database
Submit result: 3SpAjkHjOnVS9jJCZUVHS6BJ2_g- has been uploaded

==== Log checksum E279BD7686B1EC3F752BF7ED529B71604CF4B62F4DCA14E74393E99A20A61616 ====
Cue Sheet (.cue):
REM GENRE Eurodance
REM DATE 1998
REM DISCID 21114A13
REM COMMENT "ExactAudioCopy v1.3"
PERFORMER "E-Type"
TITLE "Russian Lullaby"
REM COMPOSER ""
FILE "E-Type - Russian Lullaby.flac" WAVE
TRACK 01 AUDIO
TITLE "Russian Lullaby"
PERFORMER "E-Type"
REM COMPOSER ""
INDEX 01 00:00:00
TRACK 02 AUDIO
TITLE "Until the End"
PERFORMER "E-Type"
REM COMPOSER ""
INDEX 00 03:11:64
INDEX 01 03:13:64
TRACK 03 AUDIO
TITLE "When Religion Comes to Town"
PERFORMER "E-Type"
REM COMPOSER ""
INDEX 00 06:43:69
INDEX 01 06:45:69
TRACK 04 AUDIO
TITLE "You Will Always Be A Part of Me"
PERFORMER "E-Type"
REM COMPOSER ""
INDEX 00 10:06:32
INDEX 01 10:08:32
TRACK 05 AUDIO
TITLE "Back in the Loop"
PERFORMER "E-Type"
REM COMPOSER ""
INDEX 00 14:14:13
INDEX 01 14:16:13
TRACK 06 AUDIO
TITLE "Set the World on Fire"
PERFORMER "E-Type"
REM COMPOSER ""
INDEX 00 17:41:56
INDEX 01 17:43:56
TRACK 07 AUDIO
TITLE "This is the Way"
PERFORMER "E-Type"
REM COMPOSER ""
INDEX 00 21:27:11
INDEX 01 21:29:11
TRACK 08 AUDIO
TITLE "So Dem a Com"
PERFORMER "E-Type"
REM COMPOSER ""
INDEX 00 25:23:54
INDEX 01 25:25:54
TRACK 09 AUDIO
TITLE "I Just Wanna Be with You"
PERFORMER "E-Type"
REM COMPOSER ""
INDEX 00 28:55:22
INDEX 01 28:57:22
TRACK 10 AUDIO
TITLE "You Know"
PERFORMER "E-Type"
REM COMPOSER ""
INDEX 00 32:48:26
INDEX 01 32:50:26
TRACK 11 AUDIO
TITLE "Calling Your Name"
PERFORMER "E-Type"
REM COMPOSER ""
INDEX 00 36:46:59
INDEX 01 36:48:59
TRACK 12 AUDIO
TITLE "Me No Want Miseria (Take Me to the End)"
PERFORMER "E-Type"
REM COMPOSER ""
INDEX 00 40:26:08
INDEX 01 40:28:08
TRACK 13 AUDIO
TITLE "Will I See You Again?"
PERFORMER "E-Type"
REM COMPOSER ""
INDEX 00 45:15:51
INDEX 01 45:17:51
TRACK 14 AUDIO
TITLE "Fall from the Sky"
PERFORMER "E-Type"
REM COMPOSER ""
INDEX 00 49:16:68
INDEX 01 49:18:68
TRACK 15 AUDIO
TITLE "Fight it Back"
PERFORMER "E-Type"
REM COMPOSER ""
INDEX 00 52:43:35
INDEX 01 52:45:35
TRACK 16 AUDIO
TITLE "Do You Always (Have to Be Alone)?"
PERFORMER "E-Type"
REM COMPOSER ""
INDEX 00 56:12:11
INDEX 01 56:14:11
TRACK 17 AUDIO
TITLE "I'm Not Alone"
PERFORMER "E-Type"
REM COMPOSER ""
INDEX 00 60:21:23
INDEX 01 60:23:23
TRACK 18 AUDIO
TITLE "So Dem A Com (Explorer Version)"
PERFORMER "E-Type"
REM COMPOSER ""
INDEX 00 64:55:03
INDEX 01 64:57:03
TRACK 19 AUDIO
TITLE "Set the World on Fire (Unplugged Version)"
PERFORMER "E-Type"
REM COMPOSER ""
INDEX 00 69:45:24
INDEX 01 69:47:24
Дополнительная информация:
IFPI L851 Multi Media Masters Switzerland
Matrix Z 98010
Диск неизвестного происхождения, затесавшийся в мою коллекцию!
Отчёт auCDtect Task manager:
-----------------------

DON'T MODIFY THIS FILE

-----------------------

PERFORMER: auCDtect Task Manager, ver. 1.6.0 RC1 build 1.6.0.1
Copyright (c) 2008-2010 y-soft. All rights reserved
http://y-soft.org

ANALYZER: auCDtect: CD records authenticity detector, version 0.8.2
Copyright (c) 2004 Oleg Berngardt. All rights reserved.
Copyright (c) 2004 Alexander Djourik. All rights reserved.

FILE: E-Type - Russian Lullaby.flac
Size: 533000153 Hash: 3717F44510BA2BEC8ED7CA1C1EC51F7F Accuracy: -m0
Conclusion: CDDA 100%
Signature: 4D48F8CC49B14F87BC46263DE0DACB0B3B6D95DB

(1998) E-Type - Russian Lullaby (CD).torrent
Трекер: Зарегистрирован

magnet ссылка

 


Скачать .torrent

11 KB

Статус: проверено (by Myster_Ya в 21-Сен-22 23:26)
Зарегистрирован: 21-Сен-22 21:15
Скачан: 9 раз
Размер: 519 MB | 
Поблагодарили:
Скачать (Eurodance, Euro-House) E-Type - Russian Lullaby (1998) [FLAC|Lossless|image + .cue] торрент
 


Похожие раздачи

Текущее время: 26-Сен 03:27

Часовой пояс: GMT + 3



Вы не можете начинать темы
Вы не можете отвечать на сообщения
Вы не можете редактировать свои сообщения
Вы не можете удалять свои сообщения
Вы не можете голосовать в опросах
Вы не можете прикреплять файлы к сообщениям
Вы не можете скачивать файлы