Loading...
Error
 

Скачать торрент (JPop) BanG Dream! - Garpa Bokaro Cover Collection - 2022, [TR24] [OF] [FLAC, tracks, lossless]

 
Автор Сообщение

Myster_Ya

post 18-Июл-22 23:06

BanG Dream! - Garpa Bokaro Cover Collection

pic
Формат записи/Источник записи: [TR24][OF]
Наличие водяных знаков: Нет
Год издания: 2022.07.06
Жанр: JPop
Издатель (лейбл): Bushiroad Music
Номер по каталогу: BRMM-10317
Продолжительность: 01:17:30
Контейнер: FLAC (*.flac)
Тип рипа: tracks
Разрядность: 24bit/96kHz
Формат: PCM
Количество каналов: 2.0
Источник (релизер) : ototoy.jp
Наличие сканов в содержимом раздачи: Нет
Треклист
CD 1

01. ロミオとシンデレラ [04:39]
02. 千本桜 [04:01]
03. メランコリック [03:41]
04. 夜行性ハイズ [03:46]
05. ロストワンの号哭 [03:35]
06. アスノヨゾラ哨戒班 [03:11]
07. 天ノ弱 [03:08]
08. ロキ [03:50]
09. 深海少女 [03:38]
10. 劣等上等 [03:57]

CD 2

01. 右肩の蝶 [04:37]
02. 六兆年と一夜物語 [03:36]
03. シャルル [03:51]
04. からくりピエロ [04:12]
05. ハッピーシンセサイザ [03:57]
06. みくみくにしてあげる♪【してやんよ】[01:44]
07. ルカルカ★ナイトフィーバー [04:02]
08. エイリアンエイリアン [03:03]
09. いーあるふぁんくらぶ [03:59]
10. 恋愛裁判 [03:43]
11. ドレミファロンド [03:21]
Лог Dynamic Range Meter CD 1

Код:

foobar2000 1.6.2 / Замер динамического диапазона (DR) 1.1.1
Дата отчёта:    2022-07-18 22:33:43

--------------------------------------------------------------------------------
Анализ:   Afterglow / BanG Dream! ガルパ ボカロカバーコレクション [Disc 1] (1-4)
          Morfonica / BanG Dream! ガルパ ボカロカバーコレクション [Disc 1] (5)
          Poppin'Party / BanG Dream! ガルパ ボカロカバーコレクション [Disc 1] (6-9)
          RAISE A SUILEN / BanG Dream! ガルパ ボカロカバーコレクション [Disc 1] (10)
--------------------------------------------------------------------------------

DR         Пики         RMS           Продолжительность трека
--------------------------------------------------------------------------------
DR5        0.00 дБ    -5.69 дБ      3:35 05-ロストワンの号哭
DR6       -0.11 дБ    -6.87 дБ      3:11 06-アスノヨゾラ哨戒班
DR6       -0.11 дБ    -7.41 дБ      3:08 07-天ノ弱
DR7       -0.01 дБ    -7.66 дБ      3:50 08-ロキ
DR6       -0.11 дБ    -7.95 дБ      3:38 09-深海少女
DR6       -0.11 дБ    -6.62 дБ      4:39 01-ロミオとシンデレラ
DR6       -0.11 дБ    -7.10 дБ      4:01 02-千本桜
DR6       -0.11 дБ    -7.66 дБ      3:41 03-メランコリック
DR7       -0.11 дБ    -7.90 дБ      3:46 04-夜行性ハイズ
DR5       -0.11 дБ    -6.52 дБ      3:57 10-劣等上等
--------------------------------------------------------------------------------

Количество треков:  10
Реальные значения DR:  DR6

Частота:      96000 Гц
Каналов:      2
Разрядность:     24
Битрейт:      3298 кбит/с
Кодек:      FLAC
================================================================================
Лог Dynamic Range Meter CD 2

Код:

foobar2000 1.6.2 / Замер динамического диапазона (DR) 1.1.1
Дата отчёта:    2022-07-18 22:33:51

--------------------------------------------------------------------------------
Анализ:   Pastel*Palettes / BanG Dream! ガルパ ボカロカバーコレクション [Disc 2] (1-4)
          Roselia / BanG Dream! ガルパ ボカロカバーコレクション [Disc 2] (5-7)
          ハロー、ハッピーワールド! / BanG Dream! ガルパ ボカロカバーコレクション [Disc 2] (8-11)
--------------------------------------------------------------------------------

DR         Пики         RMS           Продолжительность трека
--------------------------------------------------------------------------------
DR8       -0.11 дБ    -9.51 дБ      4:12 04-からくりピエロ
DR7       -0.11 дБ    -8.26 дБ      3:57 05-ハッピーシンセサイザ
DR7       -0.11 дБ    -8.50 дБ      1:44 06-みくみくにしてあげる♪【してやんよ】
DR7       -0.11 дБ    -8.04 дБ      4:02 07-ルカルカ★ナイトフィーバー
DR6       -0.11 дБ    -7.09 дБ      4:37 01-右肩の蝶
DR6       -0.11 дБ    -7.57 дБ      3:36 02-六兆年と一夜物語
DR6       -0.11 дБ    -7.26 дБ      3:51 03-シャルル
DR7       -0.16 дБ    -8.62 дБ      3:03 08-エイリアンエイリアン
DR8       -0.39 дБ    -9.61 дБ      3:59 09-いーあるふぁんくらぶ
DR8       -0.11 дБ    -9.00 дБ      3:43 10-恋愛裁判
DR7       -0.11 дБ    -8.70 дБ      3:21 11-ドレミファロンド
--------------------------------------------------------------------------------

Количество треков:  11
Реальные значения DR:  DR7

Частота:      96000 Гц
Каналов:      2
Разрядность:     24
Битрейт:      2994 кбит/с
Кодек:      FLAC
================================================================================

BanG Dream! - Garpa Bokaro Cover Collection (2022.07.16) (24-96) (FLAC).torrent
Трекер: Зарегистрирован

magnet ссылка

 


Скачать .torrent

19 KB

Статус: проверено (by Myster_Ya в 18-Июл-22 23:06)
Зарегистрирован: 18-Июл-22 23:06
Скачан: 4 раза
Размер: 1.74 GB | 
Поблагодарили:
Скачать (JPop) BanG Dream! - Garpa Bokaro Cover Collection - 2022, [TR24] [OF] [FLAC, tracks, lossless] торрент
 


Похожие раздачи

Текущее время: 11-Авг 01:49

Часовой пояс: GMT + 3



Вы не можете начинать темы
Вы не можете отвечать на сообщения
Вы не можете редактировать свои сообщения
Вы не можете удалять свои сообщения
Вы не можете голосовать в опросах
Вы не можете прикреплять файлы к сообщениям
Вы не можете скачивать файлы