Loading...
Error
 

Скачать торрент (Cyberpunk, Synthwave, Retrowave) Scandroid - Dreams of Darkness, Visions of Light - 2021, [WEB] [FLAC, tracks, lossless]

 
Автор Сообщение

Myster_Ya

post 21-Ноя-21 21:10

pic
Scandroid - Dreams of Darkness, Visions of Light

Жанр: Cyberpunk, Synthwave, Retrowave
Носитель: WEB
Год издания: 2021
Издатель (лейбл): FiXT Music / FXT958
Страна: US
Аудиокодек: FLAC (*.flac)
Тип рипа: tracks
Продолжительность: 01:08:38
Источник: deezer
Наличие сканов в содержимом раздачи: нет
Треклист
01. Writing's on the Wall (DEADLIFE Remix) (4:44)
02. Phoenix (Volkor X Remix) (3:48)
03. Everywhere You Go (Fury Weekend Remix) (4:20)
04. Less Than Zero (Waveshaper Remix) (feat. King Protea) (4:22)
05. The End of Time (3FORCE Remix) (4:42)
06. Astor Place (The Anix Remix) (3:15)
07. I Remember You (Lucy In Disguise Remix) (4:13)
08. Writing's on the Wall (PRIZM Remix) (5:26)
09. Purified (Extra Terra Remix) (5:02)
10. Dark Tide (Cassetter Remix) (feat. Megan McDuffee) (4:37)
11. Time Crime (Turboslash Remix) (4:13)
12. Red Planet (Lazerpunk Remix) (3:33)
13. Nighttime (Polyark Remix) (3:57)
14. New York City Nights (Tommy '86 Remix) (4:42)
15. Onyx (Hexenkraft Remix) (3:41)
16. Awakening (Hello Meteor Remix) (4:04)
DR

Код:

foobar2000 1.5.5 / Замер динамического диапазона (DR) 1.1.1
Дата отчёта:  2021-11-18 19:45:09

--------------------------------------------------------------------------------
Анализ:   Scandroid, King Protea / Dreams of Darkness, Visions of Light (1)
          Scandroid, Megan McDuffee / Dreams of Darkness, Visions of Light (2)
          Scandroid / Dreams of Darkness, Visions of Light (3-16)
--------------------------------------------------------------------------------

DR         Пики         RMS           Продолжительность трека
--------------------------------------------------------------------------------
DR7        0.00 дБ    -8.39 дБ      4:22 04-Less Than Zero (Waveshaper Remix) (feat. King Protea)
DR7       -0.12 дБ    -8.77 дБ      4:37 10-Dark Tide (Cassetter Remix) (feat. Megan McDuffee)
DR7       -0.41 дБ    -8.92 дБ      4:44 01-Writing's on the Wall (DEADLIFE Remix)
DR5       -0.10 дБ    -7.55 дБ      3:48 02-Phoenix (Volkor X Remix)
DR6        0.00 дБ    -6.67 дБ      4:20 03-Everywhere You Go (Fury Weekend Remix)
DR2       -2.01 дБ    -5.89 дБ      4:42 05-The End of Time (3FORCE Remix)
DR4       -0.01 дБ    -4.87 дБ      3:15 06-Astor Place (The Anix Remix)
DR6        0.00 дБ    -8.20 дБ      4:13 07-I Remember You (Lucy In Disguise Remix)
DR7       -0.10 дБ    -9.10 дБ      5:26 08-Writing's on the Wall (PRIZM Remix)
DR3       -0.22 дБ    -5.56 дБ      5:02 09-Purified (Extra Terra Remix)
DR7       -0.49 дБ    -8.14 дБ      4:13 11-Time Crime (Turboslash Remix)
DR5       -0.50 дБ    -7.27 дБ      3:33 12-Red Planet (Lazerpunk Remix)
DR7       -0.12 дБ    -8.05 дБ      3:57 13-Nighttime (Polyark Remix)
DR9        0.00 дБ    -9.81 дБ      4:42 14-New York City Nights (Tommy '86 Remix)
DR6        0.00 дБ    -8.00 дБ      3:41 15-Onyx (Hexenkraft Remix)
DR7       -0.12 дБ    -8.87 дБ      4:04 16-Awakening (Hello Meteor Remix)
--------------------------------------------------------------------------------

Количество треков: 16
Реальные значения DR: DR6

Частота:   44100 Гц
Каналов:   2
Разрядность:   16
Битрейт:   1009 кбит/с
Кодек:   FLAC
================================================================================

Лог проверки качества

Код:

fooCDtect - foobar2000 + auCDtect, baralgin.

auCDtect: CD records authenticity detector, version 0.8.2
Copyright (c) 2004 Oleg Berngardt. All rights reserved.
Copyright (c) 2004 Alexander Djourik. All rights reserved.

     mode: 40

===========================================
    Track: 04. Scandroid, King Protea - Less Than Zero (Waveshaper Remix) (feat. King Protea)
  Quality: CDDA 100%
===========================================
    Track: 01. Scandroid - Writing's on the Wall (DEADLIFE Remix)
  Quality: CDDA 100%
===========================================
    Track: 03. Scandroid - Everywhere You Go (Fury Weekend Remix)
  Quality: CDDA 100%
===========================================
    Track: 02. Scandroid - Phoenix (Volkor X Remix)
  Quality: CDDA  99%
===========================================
    Track: 05. Scandroid - The End of Time (3FORCE Remix)
  Quality: CDDA 100%
===========================================
    Track: 06. Scandroid - Astor Place (The Anix Remix)
  Quality: CDDA 100%
===========================================
    Track: 07. Scandroid - I Remember You (Lucy In Disguise Remix)
  Quality: CDDA  99%
===========================================
    Track: 08. Scandroid - Writing's on the Wall (PRIZM Remix)
  Quality: CDDA 100%
===========================================
    Track: 09. Scandroid - Purified (Extra Terra Remix)
  Quality: CDDA 100%
===========================================
    Track: 10. Scandroid, Megan McDuffee - Dark Tide (Cassetter Remix) (feat. Megan McDuffee)
  Quality: CDDA 100%
===========================================
    Track: 11. Scandroid - Time Crime (Turboslash Remix)
  Quality: CDDA 100%
===========================================
    Track: 12. Scandroid - Red Planet (Lazerpunk Remix)
  Quality: CDDA  99%
===========================================
    Track: 13. Scandroid - Nighttime (Polyark Remix)
  Quality: CDDA 100%
===========================================
    Track: 14. Scandroid - New York City Nights (Tommy '86 Remix)
  Quality: CDDA 100%
===========================================
    Track: 15. Scandroid - Onyx (Hexenkraft Remix)
  Quality: CDDA 100%
===========================================
    Track: 16. Scandroid - Awakening (Hello Meteor Remix)
  Quality: CDDA 100%
===========================================


Scandroid - 2021 - Dreams of Darkness, Visions of Light (FLAC).torrent
Трекер: Зарегистрирован

magnet ссылка

 


Скачать .torrent

21 KB

Статус: проверено (by Myster_Ya в 21-Ноя-21 21:11)
Зарегистрирован: 21-Ноя-21 21:10
Скачан: 51 раз
Размер: 493 MB | 
Поблагодарили:
Скачать (Cyberpunk, Synthwave, Retrowave) Scandroid - Dreams of Darkness, Visions of Light - 2021, [WEB] [FLAC, tracks, lossless] торрент
 


Похожие раздачи

Текущее время: 29-Ноя 05:04

Часовой пояс: GMT + 3



Вы не можете начинать темы
Вы не можете отвечать на сообщения
Вы не можете редактировать свои сообщения
Вы не можете удалять свои сообщения
Вы не можете голосовать в опросах
Вы не можете прикреплять файлы к сообщениям
Вы не можете скачивать файлы