Loading...
Error
 

Скачать торрент (Symphonic Metal) Dark Sarah (ex-Amberian Dawn) - Discography (3CD) - 2015-2018 [FLAC, image +.cue, lossless]

 
Автор Сообщение

trygg

post 07-Янв-20 22:06


Dark Sarah (ex-Amberian Dawn) - Discography (3CD)


pic
Год издания: 2015 - 2018
Страна: Finland pic
Жанр: Symphonic Metal
Продолжительность: 02:48:15

Страна-выпуска диска: Czech Republic pic

Формат: FLAC
Битрейт аудио: Lossless
Тип рипа: image +.cue
Наличие сканов в содержимом раздачи: да

pic
Трэклист
2015 - Behind The Black Veil | 01:02:18
pic
01. Save Me (4:23)
02. Poison Apple (4:17)
03. Hide And Seek (5:13)
04. Memories Fall (feat. Manuela Kraller) (4:24)
05. Evil Roots (feat. Inga Scharf) (4:29)
06. Violent Roses (5:03)
07. Hunting The Dreamer (5:32)
08. Fortress (5:35)
09. Silver Tree (4:45)
10. Sun, Moon And Stars (4:13)
11. Light In You (feat. Tony Kakko) (3:58)
12. Sarah's Theme (2:35)
13. Memories Fall - Orchestral Version (4:24)
14. A Grim Christmas Story (3:27)
2016 - The Puzzle | 00:48:17
pic
01. Breath (2:01)
02. Island In The Mist (4:42)
03. Little Men (4:50)
04. Ash Grove (4:12)
05. For The Birds (4:36)
06. Deep And Deeper (4:48)
07. Dance With The Dragon (feat. JP Leppaluoto) (5:25)
08. Cliffhanger (5:58)
09. Aquarium (feat. Charlotte Wessels) (4:50)
10. Rain (feat. Manuela Kraller) (6:54)
2018 - The Golden Moth | 00:57:41
pic
01. Desert Rose (1:29)
02. Trespasser (4:44)
03. Wheel (4:52)
04. My Beautiful Enemy (5:39)
05. I Once Had Wings (6:05)
06. Pirates (5:34)
07. Sky Sailing (5:34)
08. Wish (4:23)
09. The Gods Speak (feat. Marco Hietala & Zuberoa Aznarez) (6:24)
10. Promise (5:19)
11. Golden Moth (5:23)
12. The Gate Of Time (2:16)

pic
Лог создания рипа
2015 - Behind The Black Veil

Код:

Exact Audio Copy V1.1 from 23. June 2015

EAC extraction logfile from 1. December 2016, 14:20

Dark Sarah / Behind The Black Veil

Used drive  : HP      DVD Writer 1170d   Adapter: 1  ID: 1

Read mode               : Secure
Utilize accurate stream : Yes
Defeat audio cache      : Yes
Make use of C2 pointers : No

Read offset correction                      : 6
Overread into Lead-In and Lead-Out          : No
Fill up missing offset samples with silence : Yes
Delete leading and trailing silent blocks   : No
Null samples used in CRC calculations       : Yes
Used interface                              : Native Win32 interface for Win NT & 2000

Used output format              : User Defined Encoder
Selected bitrate                : 1024 kBit/s
Quality                         : High
Add ID3 tag                     : No
Command line compressor         : C:\Program Files (x86)\Exact Audio Copy\Flac\flac.exe
Additional command line options : -V -8 -T "Date=%year%" -T "Genre=%genre%" %source%

TOC of the extracted CD

     Track |   Start  |  Length  | Start sector | End sector
    ---------------------------------------------------------
        1  |  0:00.00 |  4:23.17 |         0    |    19741
        2  |  4:23.17 |  4:16.57 |     19742    |    38998
        3  |  8:39.74 |  5:13.09 |     38999    |    62482
        4  | 13:53.08 |  4:24.01 |     62483    |    82283
        5  | 18:17.09 |  4:29.02 |     82284    |   102460
        6  | 22:46.11 |  5:02.39 |    102461    |   125149
        7  | 27:48.50 |  5:31.42 |    125150    |   150016
        8  | 33:20.17 |  5:35.31 |    150017    |   175172
        9  | 38:55.48 |  4:45.24 |    175173    |   196571
       10  | 43:40.72 |  4:13.06 |    196572    |   215552
       11  | 47:54.03 |  3:57.45 |    215553    |   233372
       12  | 51:51.48 |  2:34.60 |    233373    |   244982
       13  | 54:26.33 |  4:24.20 |    244983    |   264802
       14  | 58:50.53 |  3:27.03 |    264803    |   280330

Range status and errors

Selected range

     Filename C:\EAC\Dark Sarah - Behind The Black Veil.wav

     Peak level 97.7 %
     Extraction speed 7.4 X
     Range quality 99.9 %
     Test CRC 73D972D9
     Copy CRC 73D972D9
     Copy OK

No errors occurred

AccurateRip summary

Track  1  accurately ripped (confidence 19)  [6B9F14C8]  (AR v2)
Track  2  accurately ripped (confidence 18)  [B3E45E5D]  (AR v2)
Track  3  accurately ripped (confidence 18)  [BE2DCD3C]  (AR v2)
Track  4  accurately ripped (confidence 19)  [F724FEA9]  (AR v2)
Track  5  accurately ripped (confidence 19)  [DA425CB9]  (AR v2)
Track  6  accurately ripped (confidence 18)  [DDBED560]  (AR v2)
Track  7  accurately ripped (confidence 19)  [DC176B9A]  (AR v2)
Track  8  accurately ripped (confidence 18)  [7548EAF7]  (AR v2)
Track  9  accurately ripped (confidence 19)  [19594DB0]  (AR v2)
Track 10  accurately ripped (confidence 18)  [65274A55]  (AR v2)
Track 11  accurately ripped (confidence 19)  [1F6C52C4]  (AR v2)
Track 12  accurately ripped (confidence 18)  [CA39D3AF]  (AR v2)
Track 13  accurately ripped (confidence 19)  [623F7871]  (AR v2)
Track 14  accurately ripped (confidence 18)  [2571609B]  (AR v2)

All tracks accurately ripped

End of status report
2016 - The Puzzle

Код:

Exact Audio Copy V1.1 from 23. June 2015

EAC extraction logfile from 2. December 2016, 10:49

Dark Sarah / The Puzzle

Used drive  : HP      DVD Writer 1170d   Adapter: 1  ID: 1

Read mode               : Secure
Utilize accurate stream : Yes
Defeat audio cache      : Yes
Make use of C2 pointers : No

Read offset correction                      : 6
Overread into Lead-In and Lead-Out          : No
Fill up missing offset samples with silence : Yes
Delete leading and trailing silent blocks   : No
Null samples used in CRC calculations       : Yes
Used interface                              : Native Win32 interface for Win NT & 2000

Used output format              : User Defined Encoder
Selected bitrate                : 1024 kBit/s
Quality                         : High
Add ID3 tag                     : No
Command line compressor         : C:\Program Files (x86)\Exact Audio Copy\Flac\flac.exe
Additional command line options : -V -8 -T "Date=%year%" -T "Genre=%genre%" %source%

TOC of the extracted CD

     Track |   Start  |  Length  | Start sector | End sector
    ---------------------------------------------------------
        1  |  0:00.00 |  2:00.45 |         0    |     9044
        2  |  2:00.45 |  4:42.35 |      9045    |    30229
        3  |  6:43.05 |  4:50.13 |     30230    |    51992
        4  | 11:33.18 |  4:12.32 |     51993    |    70924
        5  | 15:45.50 |  4:35.54 |     70925    |    91603
        6  | 20:21.29 |  4:47.68 |     91604    |   113196
        7  | 25:09.22 |  5:24.68 |    113197    |   137564
        8  | 30:34.15 |  5:58.08 |    137565    |   164422
        9  | 36:32.23 |  4:50.25 |    164423    |   186197
       10  | 41:22.48 |  6:54.35 |    186198    |   217282

Range status and errors

Selected range

     Filename C:\EAC\Dark Sarah - The Puzzle.wav

     Peak level 100.0 %
     Extraction speed 7.1 X
     Range quality 100.0 %
     Test CRC 2AC0C24E
     Copy CRC 2AC0C24E
     Copy OK

No errors occurred

AccurateRip summary

Track  1  not present in database
Track  2  not present in database
Track  3  not present in database
Track  4  not present in database
Track  5  not present in database
Track  6  not present in database
Track  7  not present in database
Track  8  not present in database
Track  9  not present in database
Track 10  not present in database

None of the tracks are present in the AccurateRip database

End of status report
2018 - The Golden Moth

Код:

Exact Audio Copy V1.3 from 2. September 2016

EAC extraction logfile from 27. September 2018, 19:54

Dark Sarah / The Golden Moth

Used drive  : HP      DVD Writer 1170d   Adapter: 1  ID: 1

Read mode               : Secure
Utilize accurate stream : Yes
Defeat audio cache      : Yes
Make use of C2 pointers : No

Read offset correction                      : 6
Overread into Lead-In and Lead-Out          : No
Fill up missing offset samples with silence : Yes
Delete leading and trailing silent blocks   : No
Null samples used in CRC calculations       : Yes
Used interface                              : Native Win32 interface for Win NT & 2000

Used output format              : User Defined Encoder
Selected bitrate                : 1024 kBit/s
Quality                         : High
Add ID3 tag                     : No
Command line compressor         : C:\Program Files (x86)\Exact Audio Copy\Flac\flac.exe
Additional command line options : -V -8 -T "Date=%year%" -T "Genre=%genre%" %source%

TOC of the extracted CD

     Track |   Start  |  Length  | Start sector | End sector
    ---------------------------------------------------------
        1  |  0:00.00 |  1:29.23 |         0    |     6697
        2  |  1:29.23 |  4:43.41 |      6698    |    27963
        3  |  6:12.64 |  4:51.39 |     27964    |    49827
        4  | 11:04.28 |  5:38.49 |     49828    |    75226
        5  | 16:43.02 |  6:04.45 |     75227    |   102571
        6  | 22:47.47 |  5:33.47 |    102572    |   127593
        7  | 28:21.19 |  5:34.28 |    127594    |   152671
        8  | 33:55.47 |  4:23.33 |    152672    |   172429
        9  | 38:19.05 |  6:23.51 |    172430    |   201205
       10  | 44:42.56 |  5:18.51 |    201206    |   225106
       11  | 50:01.32 |  5:23.13 |    225107    |   249344
       12  | 55:24.45 |  2:16.04 |    249345    |   259548

Range status and errors

Selected range

     Filename C:\EAC\Dark Sarah - The Golden Moth.wav

     Peak level 97.7 %
     Extraction speed 7.4 X
     Range quality 100.0 %
     Test CRC 068CEE0D
     Copy CRC 068CEE0D
     Copy OK

No errors occurred

AccurateRip summary

Track  1  not present in database
Track  2  not present in database
Track  3  not present in database
Track  4  not present in database
Track  5  not present in database
Track  6  not present in database
Track  7  not present in database
Track  8  not present in database
Track  9  not present in database
Track 10  not present in database
Track 11  not present in database
Track 12  not present in database

None of the tracks are present in the AccurateRip database

End of status report
Индексная карта (non-compilant .cue)
2015 - Behind The Black Veil

Код:

REM DATE 2015
REM DISCID B80E990E
REM COMMENT "ExactAudioCopy v1.1"
PERFORMER "Dark Sarah"
TITLE "Behind The Black Veil"
FILE "Dark Sarah - Behind The Black Veil.flac" WAVE
  TRACK 01 AUDIO
    TITLE "Save Me"
    PERFORMER "Dark Sarah"
    INDEX 01 00:00:00
  TRACK 02 AUDIO
    TITLE "Poison Apple"
    PERFORMER "Dark Sarah"
    INDEX 01 04:23:17
  TRACK 03 AUDIO
    TITLE "Hide And Seek"
    PERFORMER "Dark Sarah"
    INDEX 01 08:39:74
  TRACK 04 AUDIO
    TITLE "Memories Fall (feat. Manuela Kraller)"
    PERFORMER "Dark Sarah"
    INDEX 01 13:53:08
  TRACK 05 AUDIO
    TITLE "Evil Roots (feat. Inga Scharf)"
    PERFORMER "Dark Sarah"
    INDEX 00 18:15:26
    INDEX 01 18:17:09
  TRACK 06 AUDIO
    TITLE "Violent Roses"
    PERFORMER "Dark Sarah"
    INDEX 01 22:46:11
  TRACK 07 AUDIO
    TITLE "Hunting The Dreamer"
    PERFORMER "Dark Sarah"
    INDEX 01 27:48:50
  TRACK 08 AUDIO
    TITLE "Fortress"
    PERFORMER "Dark Sarah"
    INDEX 01 33:20:17
  TRACK 09 AUDIO
    TITLE "Silver Tree"
    PERFORMER "Dark Sarah"
    INDEX 00 38:55:08
    INDEX 01 38:55:48
  TRACK 10 AUDIO
    TITLE "Sun, Moon And Stars"
    PERFORMER "Dark Sarah"
    INDEX 01 43:40:72
  TRACK 11 AUDIO
    TITLE "Light In You (feat. Tony Kakko)"
    PERFORMER "Dark Sarah"
    INDEX 01 47:54:03
  TRACK 12 AUDIO
    TITLE "Sarah's Theme"
    PERFORMER "Dark Sarah"
    INDEX 01 51:51:48
  TRACK 13 AUDIO
    TITLE "Memories Fall - Orchestral Version"
    PERFORMER "Dark Sarah"
    INDEX 01 54:26:33
  TRACK 14 AUDIO
    TITLE "A Grim Christmas Story"
    PERFORMER "Dark Sarah"
    INDEX 01 58:50:53
2016 - The Puzzle

Код:

REM DATE 2016
REM DISCID 7C0B510A
REM COMMENT "ExactAudioCopy v1.1"
PERFORMER "Dark Sarah"
TITLE "The Puzzle"
FILE "Dark Sarah - The Puzzle.flac" WAVE
  TRACK 01 AUDIO
    TITLE "Breath"
    PERFORMER "Dark Sarah"
    INDEX 01 00:00:00
  TRACK 02 AUDIO
    TITLE "Island In The Mist"
    PERFORMER "Dark Sarah"
    INDEX 01 02:00:45
  TRACK 03 AUDIO
    TITLE "Little Men"
    PERFORMER "Dark Sarah"
    INDEX 01 06:43:05
  TRACK 04 AUDIO
    TITLE "Ash Grove"
    PERFORMER "Dark Sarah"
    INDEX 01 11:33:18
  TRACK 05 AUDIO
    TITLE "For The Birds"
    PERFORMER "Dark Sarah"
    INDEX 01 15:45:50
  TRACK 06 AUDIO
    TITLE "Deep And Deeper"
    PERFORMER "Dark Sarah"
    INDEX 01 20:21:29
  TRACK 07 AUDIO
    TITLE "Dance With The Dragon (feat. JP Leppaluoto)"
    PERFORMER "Dark Sarah"
    INDEX 01 25:09:22
  TRACK 08 AUDIO
    TITLE "Cliffhanger"
    PERFORMER "Dark Sarah"
    INDEX 01 30:34:15
  TRACK 09 AUDIO
    TITLE "Aquarium (feat. Charlotte Wessels)"
    PERFORMER "Dark Sarah"
    INDEX 01 36:32:23
  TRACK 10 AUDIO
    TITLE "Rain (feat. Manuela Kraller)"
    PERFORMER "Dark Sarah"
    INDEX 01 41:22:48
2018 - The Golden Moth

Код:

REM DATE 2018
REM DISCID 8A0D840C
REM COMMENT "ExactAudioCopy v1.3"
PERFORMER "Dark Sarah"
TITLE "The Golden Moth"
FILE "Dark Sarah - The Golden Moth.flac" WAVE
  TRACK 01 AUDIO
    TITLE "Desert Rose"
    PERFORMER "Dark Sarah"
    INDEX 01 00:00:00
  TRACK 02 AUDIO
    TITLE "Trespasser"
    PERFORMER "Dark Sarah"
    INDEX 01 01:29:23
  TRACK 03 AUDIO
    TITLE "Wheel"
    PERFORMER "Dark Sarah"
    INDEX 01 06:12:64
  TRACK 04 AUDIO
    TITLE "My Beautiful Enemy"
    PERFORMER "Dark Sarah"
    INDEX 01 11:04:28
  TRACK 05 AUDIO
    TITLE "I Once Had Wings"
    PERFORMER "Dark Sarah"
    INDEX 01 16:43:02
  TRACK 06 AUDIO
    TITLE "Pirates"
    PERFORMER "Dark Sarah"
    INDEX 01 22:47:47
  TRACK 07 AUDIO
    TITLE "Sky Sailing"
    PERFORMER "Dark Sarah"
    INDEX 01 28:21:19
  TRACK 08 AUDIO
    TITLE "Wish"
    PERFORMER "Dark Sarah"
    INDEX 01 33:55:47
  TRACK 09 AUDIO
    TITLE "The Gods Speak (feat. Marco Hietala & Zuberoa Aznarez)"
    PERFORMER "Dark Sarah"
    INDEX 01 38:19:05
  TRACK 10 AUDIO
    TITLE "Promise"
    PERFORMER "Dark Sarah"
    INDEX 01 44:42:56
  TRACK 11 AUDIO
    TITLE "Golden Moth"
    PERFORMER "Dark Sarah"
    INDEX 01 50:01:32
  TRACK 12 AUDIO
    TITLE "The Gate Of Time"
    PERFORMER "Dark Sarah"
    INDEX 01 55:24:45

pic
для ознакомления:


pic
pic
Dark Sarah.torrent
Трекер: Зарегистрирован

magnet ссылка

 


Скачать .torrent

18 KB

Статус: проверено (by ilyash_rekviem в 07-Янв-20 22:20)
Зарегистрирован: 07-Янв-20 22:06
Скачан: 24 раза
Размер: 1.33 GB | 
Поблагодарили:
Скачать (Symphonic Metal) Dark Sarah (ex-Amberian Dawn) - Discography (3CD) - 2015-2018 [FLAC, image +.cue, lossless] торрент
 


Похожие раздачи

Текущее время: 23-Янв 20:29

Часовой пояс: GMT + 3



Вы не можете начинать темы
Вы не можете отвечать на сообщения
Вы не можете редактировать свои сообщения
Вы не можете удалять свои сообщения
Вы не можете голосовать в опросах
Вы не можете прикреплять файлы к сообщениям
Вы не можете скачивать файлы