Loading...
Error
 

Скачать торрент Кризис каждый день / Bubblegum Crisis 2032 (Кацухито Акияма, Хироаки Года, Хироки Хаяси) [OVA] [8 из 8] [1987, аниме, мультфильм, фантастика, киберпанк, приключения, BDRip 1080p] [HEVC] [DVO][SHIZA Project]

 
Автор Сообщение

Roman2013

post 04-Ноя-19 14:48


Кризис каждый день / Bubblegum Crisis 2032

pic
Год выпуска: 1987-1991
Страна: Япония
Студия: AIC
Жанр: Аниме, мультфильм, фантастика, киберпанк, приключения
Продолжительность: 8 эпизодов, по ~ 00:46:37
Перевод: Двухголосый закадровый (SHIZA Project, Azazel & Ruri)
Субтитры: Русские
Режиссёр: Кацухито Акияма, Хироаки Года, Хироки Хаяси, Фумихико Такаяма
Роли озвучивали: Ёсико Сакакибара, Кинуко Омори, Томидзава Митиэ, Акико Хирамацу, Нодзому Сасаки, Тосио Фурукава, Кэнъю Хориути, Сюити Икэда, Согабэ Кадзуюки, Киёси Кавакубо
Описание:
2032 год н.э. После сильного землетрясения Токио был полностью перестроен и стал называться Мегатокио. Примерно в это же время транснациональная корпорация Genom начала массовое производство разумных и полуразумных биороботов, известных как «бумеры». Они быстро нашли применение как рабочие и солдаты, но также вызвали к жизни волну преступлений совершенно нового типа.
Корпорации нет дела до этого, она печётся лишь о собственной выгоде. Полиция также бессильна взять ситуацию под контроль. Поэтому дочь создателя «бумеров», юная леди Силия Стингрей, создаёт отряд Knight Sabers - девушек-воинов, использующих боевые экзоскелеты и вооружённых по последнему слову техники...

Качество: BDRip 1080p
Формат: MKV
Видео кодек: HEVC (H.265)
Аудио кодек: AAC
Видео : 1440 x 1080 / ~5984 kbps / 23.976 fps / 0.160 bp / 8 bit
Аудио №1: Русский, SHIZA Project: AAC / 2.0/ 48 kHz/ 192 Kbps
Аудио №2: Японский, 日本語: AAC / 2.0/ 48 kHz/ 192 Kbps

Рейтинг
pic
Bubblegum Crisis - Konya wa Hurricane (There's a Hurricane Tonight)
MediaInfo
General
Unique ID : 146006803304773386546176701125358483988 (0x6DD7E3305FF7E0170B49A53ED5EF7A14)
Complete name : Bubblegum.Crisis.2032.OVA.1987.BDRip.1080\01. Tinsel City.mkv
Format : Matroska
Format version : Version 4
File size : 2.08 GiB
Duration : 46 min 37 s
Overall bit rate : 6 374 kb/s
Encoded date : UTC 2019-11-04 10:47:35
Writing application : mkvmerge v37.0.0 ('Leave It') 64-bit
Writing library : libebml v1.3.9 + libmatroska v1.5.2

Video
ID : 1
Format : HEVC
Format/Info : High Efficiency Video Coding
Format profile : [email protected]@Main
Codec ID : V_MPEGH/ISO/HEVC
Duration : 46 min 37 s
Bit rate : 5 984 kb/s
Width : 1 440 pixels
Height : 1 080 pixels
Display aspect ratio : 4:3
Frame rate mode : Constant
Frame rate : 23.976 (23976/1000) FPS
Color space : YUV
Chroma subsampling : 4:2:0
Bit depth : 8 bits
Bits/(Pixel*Frame) : 0.160
Stream size : 1.95 GiB (94%)
Language : Japanese
Default : Yes
Forced : No

Audio #1
ID : 2
Format : AAC LC
Format/Info : Advanced Audio Codec Low Complexity
Codec ID : A_AAC-2
Duration : 46 min 37 s
Bit rate : 192 kb/s
Channel(s) : 2 channels
Channel layout : L R
Sampling rate : 48.0 kHz
Frame rate : 46.875 FPS (1024 SPF)
Compression mode : Lossy
Stream size : 63.8 MiB (3%)
Title : Azazel & Ruri
Language : Russian
Default : Yes
Forced : No

Audio #2
ID : 3
Format : AAC LC
Format/Info : Advanced Audio Codec Low Complexity
Codec ID : A_AAC-2
Duration : 46 min 37 s
Bit rate : 192 kb/s
Channel(s) : 2 channels
Channel layout : L R
Sampling rate : 48.0 kHz
Frame rate : 46.875 FPS (1024 SPF)
Compression mode : Lossy
Stream size : 65.1 MiB (3%)
Language : Japanese
Default : No
Forced : No

Text #1
ID : 4
Format : UTF-8
Codec ID : S_TEXT/UTF8
Codec ID/Info : UTF-8 Plain Text
Duration : 42 min 3 s
Bit rate : 73 b/s
Count of elements : 378
Stream size : 22.7 KiB (0%)
Title : Faddeich
Language : Russian
Default : Yes
Forced : No

Text #2
ID : 5
Format : UTF-8
Codec ID : S_TEXT/UTF8
Codec ID/Info : UTF-8 Plain Text
Duration : 40 min 1 s
Bit rate : 70 b/s
Count of elements : 333
Stream size : 20.8 KiB (0%)
Title : 19th_angel
Language : Russian
Default : No
Forced : No
Скриншоты
Bubblegum.Crisis.2032.OVA.1987.BDRip.1080.torrent
 СЕРЕБРЯНАЯ РАЗДАЧА! СКАЧАННОЕ ЗАСЧИТЫВАЕТСЯ ТОЛЬКО НАПОЛОВИНУ! 
Вечный
Трекер: Зарегистрирован

magnet ссылка

 


Скачать .torrent

37 KB

Статус: проверено (by Snowden в 04-Ноя-19 16:56)
Зарегистрирован: 04-Ноя-19 14:48
Скачан: 25 раз
Размер: 14.75 GB | 
Поблагодарили:
Скачать Кризис каждый день / Bubblegum Crisis 2032 (Кацухито Акияма, Хироаки Года, Хироки Хаяси) [OVA] [8 из 8] [1987, аниме, мультфильм, фантастика, киберпанк, приключения, BDRip 1080p] [HEVC] [DVO][SHIZA Project] торрент
 


Похожие раздачи

Текущее время: 14-Ноя 23:12

Часовой пояс: GMT + 3



Вы не можете начинать темы
Вы не можете отвечать на сообщения
Вы не можете редактировать свои сообщения
Вы не можете удалять свои сообщения
Вы не можете голосовать в опросах
Вы не можете прикреплять файлы к сообщениям
Вы не можете скачивать файлы