Loading...
Error
 

Скачать торрент Foreigner - Live At The Rainbow '78 [2019, Hard Rock, Blu-ray, 1080p]

 
Автор Сообщение

trygg

post 13-Окт-19 15:27


Foreigner - Live At The Rainbow '78


pic
pic

Год выпуска: 2019
Страна: USA pic
Жанр: Hard Rock, Classic Rock
Режиссер: Claire Higgins
Продолжительность: 01:14:42

pic
Снятый 27 апреля 1978 года в театре «Rainbow» концерт включает в себя выступления всех 10 песен «Foreigner», включая хиты «Feels Like the First Time» и «Cold as Ice». Релиз домашнего видео также включает две песни, которые нашли свое место на Double Vision позже в том же году: заглавный трек и "Hot Blooded". Аудио было ремикшировано и ремастировано с оригинальных кинолент. Вы можете увидеть список треков ниже.

Качество видео: Blu-ray
Контейнер: BDMV
Стандарт разрешения: 1080p
Видео кодек: MPEG4 AVC
Аудио кодек: LPCM Audio / DTS-HD Master Audio
Видео: MPEG-4 AVC Video /31989 kbps / 1080p / 24 fps / 16:9 / High Profile 4.1
Аудио: LPCM Audio / English / 2.0 / 96 kHz / 4608 kbps / 24-bit
Аудио 2: DTS-HD Master Audio / English / 5.1 / 96 kHz / 8473 kbps / 24-bit (DTS Core: 5.1 / 48 kHz / 1509 kbps / 24-bit)

Трэклист
pic
01. Long, Long Way From Home
02. I Need You
03. Woman Oh Woman
04. Hot Blooded
05. The Damage Is Done
06. Cold As Ice
07. Starrider
08. Double Vision
09. Feels Like The First Time
10. Fool For You Anyway
11. At War With The World
12. Headknocker
BDInfo
Disc Title: Foreigner - Live At The Rainbow '78
Disc Size: 27 446 808 734 bytes
Protection: AACS
BD-Java: No
BDInfo: 0.5.8
Notes:
BDINFO HOME:
Cinema Squid

INCLUDES FORUMS REPORT FOR:
AVS Forum Blu-ray Audio and Video Specifications Thread

********************
PLAYLIST: 00000.MPLS
********************
<--- BEGIN FORUMS PASTE --->

Код:

Код:

Total   Video
Title                                                           Codec   Length  Movie Size      Disc Size       Bitrate Bitrate Main Audio Track                          Secondary Audio Track
-----                                                           ------  ------- --------------  --------------  ------- ------- ------------------                        ---------------------
00000.MPLS                                                      AVC     1:14:44 26 601 056 256  27 446 808 734  47,46   31,99   LPCM 2.0 4608Kbps (96kHz/24-bit)          DTS-HD Master 5.1 8473Kbps (96kHz/24-bit)
Код:

Код:

DISC INFO:
Disc Title:     Foreigner - Live At The Rainbow '78
Disc Size:      27 446 808 734 bytes
Protection:     AACS
BD-Java:        No
BDInfo:         0.5.8
PLAYLIST REPORT:
Name:                   00000.MPLS
Length:                 1:14:44.416 (h:m:s.ms)
Size:                   26 601 056 256 bytes
Total Bitrate:          47,46 Mbps
VIDEO:
Codec                   Bitrate             Description
-----                   -------             -----------
MPEG-4 AVC Video        31989 kbps          1080p / 24 fps / 16:9 / High Profile 4.1
AUDIO:
Codec                           Language        Bitrate         Description
-----                           --------        -------         -----------
LPCM Audio                      English         4608 kbps       2.0 / 96 kHz / 4608 kbps / 24-bit
DTS-HD Master Audio             English         8473 kbps       5.1 / 96 kHz / 8473 kbps / 24-bit (DTS Core: 5.1 / 48 kHz / 1509 kbps / 24-bit)
FILES:
Name            Time In         Length          Size            Total Bitrate
----            -------         ------          ----            -------------
00000.M2TS      0:00:00.000     1:14:42.916     26 599 667 712  47 469
00300.M2TS      1:14:42.916     0:00:01.500     1 388 544       7 406
CHAPTERS:
Number          Time In         Length          Avg Video Rate  Max 1-Sec Rate  Max 1-Sec Time  Max 5-Sec Rate  Max 5-Sec Time  Max 10Sec Rate  Max 10Sec Time  Avg Frame Size  Max Frame Size  Max Frame Time
------          -------         ------          --------------  --------------  --------------  --------------  --------------  --------------  --------------  --------------  --------------  --------------
1               0:00:00.000     0:03:38.000     32 007 kbps     38 972 kbps     00:02:33.500    33 442 kbps     00:02:29.541    32 700 kbps     00:02:24.500    166 673 bytes   350 099 bytes   00:00:00.958
2               0:03:38.000     0:07:08.000     32 000 kbps     38 695 kbps     00:10:09.666    33 255 kbps     00:10:05.791    32 633 kbps     00:10:00.625    166 666 bytes   350 099 bytes   00:10:12.166
3               0:10:46.000     0:04:12.000     32 000 kbps     38 385 kbps     00:14:38.916    33 295 kbps     00:14:34.958    32 656 kbps     00:14:29.916    166 666 bytes   350 099 bytes   00:14:41.166
4               0:14:58.000     0:05:09.000     31 995 kbps     34 947 kbps     00:17:13.500    32 728 kbps     00:16:42.708    32 352 kbps     00:16:37.666    166 642 bytes   381 436 bytes   00:17:44.166
5               0:20:07.000     0:04:27.000     32 000 kbps     40 998 kbps     00:24:26.500    33 919 kbps     00:24:22.541    32 973 kbps     00:24:17.500    166 667 bytes   350 099 bytes   00:20:07.958
6               0:24:34.000     0:06:40.000     32 004 kbps     38 285 kbps     00:25:38.791    33 252 kbps     00:25:34.833    32 604 kbps     00:25:29.791    166 686 bytes   364 207 bytes   00:27:19.125
7               0:31:14.000     0:12:12.125     32 000 kbps     46 313 kbps     00:31:15.166    33 069 kbps     00:34:30.625    32 515 kbps     00:34:25.583    166 667 bytes   591 086 bytes   00:31:16.041
8               0:43:26.125     0:04:07.875     31 998 kbps     34 451 kbps     00:47:25.291    32 464 kbps     00:47:21.291    32 242 kbps     00:47:16.291    166 656 bytes   351 378 bytes   00:47:26.250
9               0:47:34.000     0:05:28.000     32 001 kbps     36 512 kbps     00:52:34.166    33 078 kbps     00:52:30.208    32 488 kbps     00:52:25.166    166 674 bytes   481 745 bytes   00:52:35.166
10              0:53:02.000     0:04:39.000     32 000 kbps     43 738 kbps     00:57:22.500    34 439 kbps     00:57:18.541    33 213 kbps     00:57:13.500    166 667 bytes   409 782 bytes   00:57:23.125
11              0:57:41.000     0:05:00.000     31 995 kbps     37 338 kbps     01:02:26.416    33 100 kbps     01:02:22.416    32 530 kbps     01:02:17.375    166 641 bytes   350 099 bytes   01:02:28.916
12              1:02:41.000     0:12:01.916     32 000 kbps     40 234 kbps     01:13:51.999    33 681 kbps     01:13:48.041    32 901 kbps     01:13:42.999    166 667 bytes   640 639 bytes   01:13:56.416
13              1:14:42.916     0:00:01.500     70 kbps         77 kbps         01:14:42.958    0 kbps          00:00:00.000    0 kbps          00:00:00.000    377 bytes       2 431 bytes     01:14:43.666
STREAM DIAGNOSTICS:
File            PID             Type            Codec           Language                Seconds                 Bitrate                 Bytes           Packets
----            ---             ----            -----           --------                --------------          --------------          -------------   -----
00000.M2TS      4113 (0x1011)   0x1B            AVC                                     4482,750                32 001                  17 931 666 670  97 515 639
00000.M2TS      4352 (0x1100)   0x80            LPCM            eng (English)           4482,750                4 614                   2 585 194 528   14 342 272
00000.M2TS      4353 (0x1101)   0x86            DTS-HD MA       eng (English)           4482,750                8 475                   4 748 901 296   26 531 817
00300.M2TS      4113 (0x1011)   0x1B            AVC                                     1,375                   91                      15 637          96
00300.M2TS      4352 (0x1100)   0x80            LPCM            eng (English)           1,375                   5 034                   865 200         4 800
00300.M2TS      4353 (0x1101)   0x86            DTS-HD MA       eng (English)           1,375                   2 200                   378 196         2 256
<---- END FORUMS PASTE ---->
QUICK SUMMARY:
Disc Title: Foreigner - Live At The Rainbow '78
Disc Size: 27 446 808 734 bytes
Protection: AACS
BD-Java: No
Playlist: 00000.MPLS
Size: 26 601 056 256 bytes
Length: 1:14:44.416
Total Bitrate: 47,46 Mbps
Video: MPEG-4 AVC Video / 31989 kbps / 1080p / 24 fps / 16:9 / High Profile 4.1
Audio: English / LPCM Audio / 2.0 / 96 kHz / 4608 kbps / 24-bit
Audio: English / DTS-HD Master Audio / 5.1 / 96 kHz / 8473 kbps / 24-bit (DTS Core: 5.1 / 48 kHz / 1509 kbps / 24-bit)
********************
PLAYLIST: 00200.MPLS
********************
<--- BEGIN FORUMS PASTE --->

Код:

Код:

Total   Video
Title                                                           Codec   Length  Movie Size      Disc Size       Bitrate Bitrate Main Audio Track                          Secondary Audio Track
-----                                                           ------  ------- --------------  --------------  ------- ------- ------------------                        ---------------------
00200.MPLS                                                      AVC     0:00:20 45 637 632      27 446 808 734  18,21   15,01   LPCM 2.0 2304Kbps (48kHz/24-bit)
Код:

Код:

DISC INFO:
Disc Title:     Foreigner - Live At The Rainbow '78
Disc Size:      27 446 808 734 bytes
Protection:     AACS
BD-Java:        No
BDInfo:         0.5.8
PLAYLIST REPORT:
Name:                   00200.MPLS
Length:                 0:00:20.053 (h:m:s.ms)
Size:                   45 637 632 bytes
Total Bitrate:          18,21 Mbps
VIDEO:
Codec                   Bitrate             Description
-----                   -------             -----------
MPEG-4 AVC Video        15013 kbps          1080i / 29,970 fps / 16:9 / High Profile 4.1
AUDIO:
Codec                           Language        Bitrate         Description
-----                           --------        -------         -----------
LPCM Audio                      English         2304 kbps       2.0 / 48 kHz / 2304 kbps / 24-bit
FILES:
Name            Time In         Length          Size            Total Bitrate
----            -------         ------          ----            -------------
00005.M2TS      0:00:00.000     0:00:20.053     45 637 632      18 206
CHAPTERS:
Number          Time In         Length          Avg Video Rate  Max 1-Sec Rate  Max 1-Sec Time  Max 5-Sec Rate  Max 5-Sec Time  Max 10Sec Rate  Max 10Sec Time  Avg Frame Size  Max Frame Size  Max Frame Time
------          -------         ------          --------------  --------------  --------------  --------------  --------------  --------------  --------------  --------------  --------------  --------------
1               0:00:00.000     0:00:20.053     15 013 kbps     47 376 kbps     00:00:06.106    31 296 kbps     00:00:04.771    25 846 kbps     00:00:04.704    62 619 bytes    360 393 bytes   00:00:11.010
STREAM DIAGNOSTICS:
File            PID             Type            Codec           Language                Seconds                 Bitrate                 Bytes           Packets
----            ---             ----            -----           --------                --------------          --------------          -------------   -----
00005.M2TS      4113 (0x1011)   0x1B            AVC                                     19,953                  15 089                  37 633 838      204 915
00005.M2TS      4352 (0x1100)   0x80            LPCM            eng (English)           19,953                  2 322                   5 791 884       32 088


<---- END FORUMS PASTE ---->
QUICK SUMMARY:
Disc Title: Foreigner - Live At The Rainbow '78
Disc Size: 27 446 808 734 bytes
Protection: AACS
BD-Java: No
Playlist: 00200.MPLS
Size: 45 637 632 bytes
Length: 0:00:20.053
Total Bitrate: 18,21 Mbps
Video: MPEG-4 AVC Video / 15013 kbps / 1080i / 29,970 fps / 16:9 / High Profile 4.1
Audio: English / LPCM Audio / 2.0 / 48 kHz / 2304 kbps / 24-bit

pic
Скриншоты


pic
pic
Foreigner - Live At The Rainbow '78.torrent
 ЗОЛОТАЯ РАЗДАЧА! СКАЧАННОЕ НЕ ЗАСЧИТЫВАЕТСЯ! 
Вечный
Трекер: Зарегистрирован

magnet ссылка

 


Скачать .torrent

131 KB

Статус: проверено (by E IL o T IR i X в 13-Окт-19 17:45)
Зарегистрирован: 13-Окт-19 15:27
Скачан: 3 раза
Размер: 25.56 GB | 
Поблагодарили:
Скачать Foreigner - Live At The Rainbow '78 [2019, Hard Rock, Blu-ray, 1080p] торрент
 


Похожие раздачи

Текущее время: 14-Ноя 23:13

Часовой пояс: GMT + 3



Вы не можете начинать темы
Вы не можете отвечать на сообщения
Вы не можете редактировать свои сообщения
Вы не можете удалять свои сообщения
Вы не можете голосовать в опросах
Вы не можете прикреплять файлы к сообщениям
Вы не можете скачивать файлы