Loading...
Error
 

Скачать торрент Военная приемка. Двухзвенники. Стальные рептилии русского бездорожья (эфир от 08.09.2019) [2019, Документальный, военное дело, SATRip]

 
Автор Сообщение

centoriuse

post 08-Сен-19 08:13

pic
Военная приемка. Двухзвенники. Стальные рептилии русского бездорожья

Год выпуска: 2019
Страна: Россия, ОАО «ТРК ВС РФ «ЗВЕЗДА
Режиссер: Александр Шильников
Ведущий: Алексей Егоров
Жанр:Документальный, военное дело
Продолжительность: 00:38:55
Перевод: Не требуется
Субтитры: Отсутствует

Описание:
Этим стальным рептилиям чем хуже, тем лучше. Пройдут везде. По разбитым дорогам, по снегу, по грязи и по болоту. В новом выпуске «Военная приёмка» расскажет об уникальных двухзвенных вездеходах ГАЗ-3344. Чтобы увидеть их работу, съёмочная группа программы побывала на Новой Земле, в Печенгском районе на границе с Норвегией и на военной базе, расположенной посреди Северного Ледовитого океана на острове Котельный. Всё, для того, чтобы устроить вездеходу экстремальные испытания в разных климатических зонах - от средней полосы до вечной мерзлоты. О том, на что способен новейший вездеход, какие нагрузки он должен выдерживать и зачем ему два звена, смотрите в новом выпуске «Военной приёмки».


Качество: SATRip
Формат: AVI
Видео кодек: XviD
Аудио кодек: AC3
Видео: XviD, 720x400 (16:9), 25.000 fps, 1809 Kbps (0.250 bit/pixel)
Аудио: AC-3, 48.0 KHz, 2 ch, 192 Kbps, CBR
MediaInfo

Код:

Общее
Полное имя                               : F:\видео\ТВ передачи\Военная приемка\Военная приемка (2019.09.08) SATRip.avi
Формат                                   : AVI
Формат/Информация                        : Audio Video Interleave
Размер файла                             : 560 Мбайт
Продолжительность                        : 38 м. 55 с.
Общий поток                              : 2011 Кбит/сек
Программа кодирования                    : VirtualDubMod 1.5.10.3 | (build 2550/release)
Библиотека кодирования                   : VirtualDubMod build 2550/release

Видео
Идентификатор                            : 0
Формат                                   : MPEG-4 Visual
Профиль формата                          : Advanced [email protected]
Настройки формата                        : BVOP1
Параметр BVOP формата                    : 1
Параметр QPel формата                    : Нет
Параметр GMC формата                     : Без точки перехода
Параметр матрицы формата                 : Default (H.263)
Идентификатор кодека                     : XVID
Идентификатор кодека/Подсказка           : XviD
Продолжительность                        : 38 м. 55 с.
Битрейт                                  : 1809 Кбит/сек
Ширина                                   : 720 пикселей
Высота                                   : 400 пикселей
Соотношение сторон                       : 16:9
Частота кадров                           : 25,000 кадров/сек
Цветовое пространство                    : YUV
Субдискретизация насыщенности            : 4:2:0
Битовая глубина                          : 8 бит
Тип развёртки                            : Прогрессивная
Метод сжатия                             : С потерями
Бит/(Пиксели*Кадры)                      : 0.251
Размер потока                            : 504 Мбайт (90%)
Библиотека кодирования                   : XviD 1.2.1 (UTC 2008-12-04)

Аудио
Идентификатор                            : 1
Формат                                   : AC-3
Формат/Информация                        : Audio Coding 3
Коммерческое название                    : Dolby Digital
Идентификатор кодека                     : 2000
Продолжительность                        : 38 м. 55 с.
Вид битрейта                             : Постоянный
Битрейт                                  : 192 Кбит/сек
Каналы                                   : 2 канала
Channel layout                           : L R
Частота                                  : 48,0 КГц
Частота кадров                           : 31,250 кадров/сек (1536 SPF)
Битовая глубина                          : 16 бит
Метод сжатия                             : С потерями
Размер потока                            : 53,5 Мбайт (10%)
Выравнивание                             : Разделение по промежуткам
Продолжительность промежутка             : 40  мс. (1,00 видеокадр)
Время предзагрузки промежутка            : 500  мс.
ServiceKind/String                       : Complete Main
Скриншоты:
(2019.09.08) SATRip.avi.torrent
Трекер: Зарегистрирован

magnet ссылка

 


Скачать .torrent

11 KB

Статус: проверено (by Temaxa в 08-Сен-19 13:13)
Зарегистрирован: 08-Сен-19 08:13
Скачан: 20 раз
Размер: 560 MB | 
Поблагодарили:
Скачать Военная приемка. Двухзвенники. Стальные рептилии русского бездорожья (эфир от 08.09.2019) [2019, Документальный, военное дело, SATRip] торрент
 


Похожие раздачи

Текущее время: 16-Сен 10:22

Часовой пояс: GMT + 3



Вы не можете начинать темы
Вы не можете отвечать на сообщения
Вы не можете редактировать свои сообщения
Вы не можете удалять свои сообщения
Вы не можете голосовать в опросах
Вы не можете прикреплять файлы к сообщениям
Вы не можете скачивать файлы