Loading...
Error
 

Скачать торрент Штурмовые ведьмы / Sutoraiku uicchîzu: Gekijouban (Кадзухиро Такамура) [2012, аниме, мультфильм, приключения, BDRip] [DVO] [Carrier88 & Kasumi]

 
Автор Сообщение

mayson95

post 10-Июн-19 03:50

pic
Штурмовые ведьмы / Sutoraiku uicchîzu: Gekijouban

Год выпуска: 2012
Страна: Япония, 501st Joint Fighter Wing
Жанр: аниме, мультфильм, приключения
Продолжительность: 01:34:22
Перевод : Любительский двухголосый закадровый Ray & Eladiel (AniLibria)
Субтитры: Русские отдельным файлом (.ass) (Перевод: Nachtwandler & Jenia aka Zub)
В ролях: Bryn Apprill, Кейт Бристоль, Люси Кристиан, Коллин Клинкенберд, Matt Coccuzo, Чад Кокудза, Jennifer Forrester, Мисато Фукуэн, Кэйтлин Гласс, Юми Хара

Режиссёр: Кадзухиро Такамура
Описание:
Действие фильма происходит в 1945 году. Ёсика Мияфудзи, которая потеряла свою силу ведьм во время последнего назначения Удар Ведьм, учиться, чтобы стать врачом. Шизука Хаттори, одному из курсантов в Императорском флоте Fuso, приходит сообщение: Ёсика должна быть передана для обучения за рубежом в Европе.
Качество: BDRip [Strike Witches Movie Blu-Ray Remux 1080p by antiBILLotic]
Формат: AVI
Видео кодек: XviD
Аудио кодек: AC3
Видео: XviD, 704x400, ~ 1610 Кбит/сек, 23,976 fps
Audio #1: AC-3, 48,0 КГц, 2 ch, 192 Кбит/сек, CBR s | Русский (AniLibria)
Audio #2: AC-3, 48,0 КГц, 2 ch, 192 Кбит/сек, CBR | | Японский Оригинал
Рип Deadmauvlad
Рейтинг
pic
MI

Код:

Общее
Полное имя                               : E:\anime\Раздача\Shturmovye.vedmi.2012.BDRip.Movie.1.46.GB.Deadmauvlad\Shturmovye.vedmi.2012.BDRip.Movie.1.46.GB.Deadmauvlad.avi
Формат                                   : AVI
Формат/Информация                        : Audio Video Interleave
Размер файла                             : 1,45 Гбайт
Продолжительность                        : 1 ч. 34 м.
Общий поток                              : 2206 Кбит/сек
Название фильма                          : Shturmovye.vedmi.2012.BDRip.Movie.1.46.GB.Deadmauvlad
Режиссёр                                 : Encoder by Deadmauvlad
Жанр                                     : Этти
Программа кодирования                    : VirtualDubMod 1.5.10.3 (build 2550/release)
Формат оригинала/Имя                     : Аниме
Авторское право                          : Encoder by Deadmauvlad
Примечание                               : Ray & Eladiel (Anilibria)

Видео
Идентификатор                            : 0
Формат                                   : MPEG-4 Visual
Профиль формата                          : Advanced [email protected]
Настройки формата                        : BVOP1 / Custom Matrix
Параметр BVOP формата                    : 1
Параметр QPel формата                    : Нет
Параметр GMC формата                     : Без точки перехода
Параметр матрицы формата                 : Выборочная
Идентификатор кодека                     : XVID
Идентификатор кодека/Подсказка           : XviD
Продолжительность                        : 1 ч. 34 м.
Битрейт                                  : 1616 Кбит/сек
Ширина                                   : 704 пикселя
Высота                                   : 400 пикселей
Соотношение сторон                       : 16:9
Частота кадров                           : 23,976 (24000/1001) кадра/сек
Цветовое пространство                    : YUV
Субдискретизация насыщенности            : 4:2:0
Битовая глубина                          : 8 бит
Тип развёртки                            : Прогрессивная
Метод сжатия                             : С потерями
Бит/(Пиксели*Кадры)                      : 0.239
Размер потока                            : 1,07 Гбайт (73%)
Библиотека кодирования                   : XviD 73

Аудио #1
Идентификатор                            : 1
Формат                                   : AC-3
Формат/Информация                        : Audio Coding 3
Коммерческое название                    : Dolby Digital
Идентификатор кодека                     : 2000
Продолжительность                        : 1 ч. 34 м.
Вид битрейта                             : Постоянный
Битрейт                                  : 192 Кбит/сек
Каналы                                   : 2 канала
Channel layout                           : L R
Частота                                  : 48,0 КГц
Частота кадров                           : 31,250 кадров/сек (1536 SPF)
Битовая глубина                          : 16 бит
Метод сжатия                             : С потерями
Размер потока                            : 130 Мбайт (9%)
Выравнивание                             : Разделение по промежуткам
Продолжительность промежутка             : 42  мс. (1,00 видеокадр)
Время предзагрузки промежутка            : 500  мс.
ServiceKind/String                       : Complete Main

Аудио #2
Идентификатор                            : 2
Формат                                   : AC-3
Формат/Информация                        : Audio Coding 3
Коммерческое название                    : Dolby Digital
Идентификатор кодека                     : 2000
Продолжительность                        : 1 ч. 34 м.
Вид битрейта                             : Постоянный
Битрейт                                  : 384 Кбит/сек
Каналы                                   : 6 каналов
Channel layout                           : L R C LFE Ls Rs
Частота                                  : 48,0 КГц
Частота кадров                           : 31,250 кадров/сек (1536 SPF)
Битовая глубина                          : 16 бит
Метод сжатия                             : С потерями
Размер потока                            : 259 Мбайт (17%)
Выравнивание                             : Разделение по промежуткам
Продолжительность промежутка             : 42  мс. (1,00 видеокадр)
Время предзагрузки промежутка            : 500  мс.
ServiceKind/String                       : Complete Main
Скриншоты
ГЛАВНЫЕ ГЕРОИ Данного аниме
pic
ПОРЯДОК ПРОСМОТРА:
#1 Штурмовые ведьмы OVA-1 - OVA (1 эп. + промо), часть проекта, 2007 ✖
#2 Штурмовые ведьмы [ТВ-1] - ТВ (12 эп.), часть проекта, 2008 Раздача ✔
#3 Штурмовые ведьмы [ТВ-2] - ТВ (12 эп.), продолжение, 2010 ✔ Данная Раздача
#4 Штурмовые ведьмы OVA-2 - OVA (3 эп.), продолжение, 2014 ✖
#5 Штурмовые ведьмы (фильм) - п/ф, продолжение, 2012 ✖
#6 Brave Witches - ТВ, часть проекта, 2016 ✖
#7 Храбрые ведьмы OVA - OVA (1 эп.), продолжение (13-й эпизод), 2017 ✖
#8 Strike Witches: 501 Butai Hasshin Shimasu!! - ТВ (>12 эп.), развитие вселенной, 2019 ✖
#9 Dai 501 Tougou Sentou Koukuu Dan Strike Witches: Road to Berlin - ТВ, развитие вселенной, 2020 ✖
#10 Renmei Kuugun Koukuu Mahou Ongakutai Luminous Witches - ТВ, развитие вселенной, 2021 ✖
Shturmovye.vedmi.2012.BDRip.Movie.1.46.GB.Deadm.torrent
Трекер: Зарегистрирован

magnet ссылка

 


Скачать .torrent

3 KB

Статус: проверено (by Cherepah в 10-Июн-19 09:42)
Зарегистрирован: 10-Июн-19 03:50
Скачан: 8 раз
Размер: 1.45 GB | 
Поблагодарили:
Скачать Штурмовые ведьмы / Sutoraiku uicchîzu: Gekijouban (Кадзухиро Такамура) [2012, аниме, мультфильм, приключения, BDRip] [DVO] [Carrier88 & Kasumi] торрент
 


Похожие раздачи

Tereck

post 10-Июн-19 14:49 (спустя 10 часов)

Срамота smile

Текущее время: 18-Сен 15:08

Часовой пояс: GMT + 3



Вы не можете начинать темы
Вы не можете отвечать на сообщения
Вы не можете редактировать свои сообщения
Вы не можете удалять свои сообщения
Вы не можете голосовать в опросах
Вы не можете прикреплять файлы к сообщениям
Вы не можете скачивать файлы