Loading...
Error
 

Скачать торрент Уральские пельмени (Шубный приговор) (Анастастия Ширина, Леонид Коновалов) [2019 г., ТВ-шоу, юмор, сатира, развлекательный, WEB-DL 720p] | 12.04.2019

 
Автор Сообщение

Snowden

post 23-Май-19 13:12


Уральские пельмени (Шубный приговор)
«-»

pic
Год выхода: 2019
Страна: Россия
Жанр: ТВ-шоу, юмор, сатира, развлекательный
Продолжительность: 01:13:02
Перевод: Не требуется
Субтитры: Отсутствуют

Режиссер: Анастастия Ширина, Леонид Коновалов
В ролях: Дмитрий Брекоткин, Сергей Ершов, Сергей Исаев, Сергей Калугин, Вячеслав Мясников, Александр Попов, Андрей Рожков, Дмитрий Соколов, Максим Ярица, Юлия Михалкова, Илана Юрьева, Ксения Корнева, Данила Пятков, Артём Пушкин, Роман Постовалов

О фильме: Когда буйки становятся ближе, когда ложишься спать обмазанным сметаной, когда диета разбивается об олинклюзив, когда чемоданы заполняются не нужными сувенирами. Тогда наступает «Пляжный шизон» в новой программе от Шоу «Уральские Пельмени»

Качество: WEB-DL 720p
Формат: mkv
Видео кодек: AVC
Аудио кодек: AC3
Видео: 1280x720, 25.000 fps, 2090 Кбит/с
Аудио: 192 kb/s, 2 ch, 48.0 KHz

Примечание: Релиз без рекламы!
MediaInfo

Код:

General
Unique ID                                : 73402970146810411463442832543453021793 (0x3738E5D79D623D6AD2D602E8823C0661)
Complete name                            : Шубный приговор. Уральские пельмени (12.04.2019).mkv
Format                                   : Matroska
Format version                           : Version 4 / Version 2
File size                                : 1.19 GiB
Duration                                 : 1h 13mn
Overall bit rate                         : 2 328 Kbps
Writing application                      : Lavf57.71.100
Writing library                          : Lavf57.71.100 / Lavf57.71.100
ErrorDetectionType                       : Per level 1

Video
ID                                       : 1
Format                                   : AVC
Format/Info                              : Advanced Video Codec
Format profile                           : [email protected]
Format settings, CABAC                   : Yes
Format settings, ReFrames                : 3 frames
Codec ID                                 : V_MPEG4/ISO/AVC
Duration                                 : 1h 13mn
Bit rate                                 : 2 090 Kbps
Width                                    : 1 280 pixels
Height                                   : 720 pixels
Display aspect ratio                     : 16:9
Frame rate mode                          : Constant
Frame rate                               : 25.000 fps
Color space                              : YUV
Chroma subsampling                       : 4:2:0
Bit depth                                : 8 bits
Scan type                                : Progressive
Bits/(Pixel*Frame)                       : 0.091
Stream size                              : 1.07 GiB (90%)
Default                                  : Yes
Forced                                   : No
Color range                              : Limited
Color primaries                          : BT.709
Transfer characteristics                 : BT.709
Matrix coefficients                      : BT.709
DURATION                                 : 01:13:02.800000000

Audio
ID                                       : 2
Format                                   : AC-3
Format/Info                              : Audio Coding 3
Mode extension                           : CM (complete main)
Format settings, Endianness              : Big
Codec ID                                 : A_AC3
Duration                                 : 1h 13mn
Bit rate mode                            : Constant
Bit rate                                 : 192 Kbps
Channel(s)                               : 2 channels
Channel positions                        : Front: L R
Sampling rate                            : 48.0 KHz
Frame rate                               : 31.250 fps (1536 spf)
Compression mode                         : Lossy
Delay relative to video                  : -40ms
Stream size                              : 100 MiB (8%)
Default                                  : Yes
Forced                                   : No
DURATION                                 : 01:13:02.720000000
Рейтинг
pic pic pic
Доп. информация
Эфир от 12 апреля 2019 года
Скриншоты
. Уральские пельмени (12.04.2019).mkv.torrent
Трекер: Зарегистрирован

magnet ссылка

 


Скачать .torrent

12 KB

Статус: проверено (by Snowden в 23-Май-19 13:13)
Зарегистрирован: 23-Май-19 13:12
Скачан: 63 раза
Размер: 1.19 GB | 
Поблагодарили:
Скачать Уральские пельмени (Шубный приговор) (Анастастия Ширина, Леонид Коновалов) [2019 г., ТВ-шоу, юмор, сатира, развлекательный, WEB-DL 720p] | 12.04.2019 торрент
 


Похожие раздачи

Текущее время: 27-Июн 13:03

Часовой пояс: GMT + 3



Вы не можете начинать темы
Вы не можете отвечать на сообщения
Вы не можете редактировать свои сообщения
Вы не можете удалять свои сообщения
Вы не можете голосовать в опросах
Вы не можете прикреплять файлы к сообщениям
Вы не можете скачивать файлы