Loading...
Error
 

Скачать торрент Девы Галилея / Galilei Donna (Сезон 01) (01-11 Серия из 11) (Ясуоми Умэцу) [2013, аниме, мультфильм, приключения , BDRip] DUB [СВ-Дубль]

 
Автор Сообщение

mayson95

post 14-Май-19 11:51

pic
Девы Галилея / Galilei Donna

Год выпуска: 2013
Страна: Япония, A-1 Pictures Inc.
Жанр: аниме, мультфильм, приключения
Продолжительность: 11 эп. по ~00:23:00
(Сезон 01)
Серии 01-11 из 11
Перевод : Профессиональный дублированный (СВ-Дубль) | Телеканал FAN
Субтитры: Русские (Отдельным Файлом) полный перевод, ASS) Перевод: LeDi-MaHo Team & Stan WarHammer
В ролях: Рина Хидака, Руми Окубо, Кэй Синдо, Марина Иноуэ, Тайтэн Кусуноки, Хироси Камия, Рикия Кояма, Хоко Кувасима
Режиссёр: Ясуоми Умэцу
Описание: Действие разворачивается в 2061 году. На носу новый ледниковый период. Трое потомков Галилео Галилея — сёстры Ходзуки, Хадзуки и Кадзуки Феррари — беззаботно живут в итальянской Тоскане, но ровно до того момента, как на них нападают представители некой таинственной организации, которым нужно нечто под названием «Галилео Тезоро». В результате цепочки событий сёстры попадают в международный розыск и теперь вынуждены объединить свои силы, дабы справиться с навалившимися проблемами.
Качество: BDRip [ Galilei Donna Blu-Ray Remux 1080p antiBILLotic ]
Формат: AVI
Видео кодек: XviD
Аудио кодек: AC3
Видео: XviD, 720x400 (16:9), ~ 1634 Кбит/сек, 23,976 fps
Audio #1: AC-3, 48,0 КГц, 2 ch, 192 Кбит/сек, CBR s | Русский (СВ-Дубль) | Телеканал FAN
Audio #2: AC-3, 48,0 КГц, 2 ch, 192 Кбит/сек, CBR | Японский Оригинал | Внутри Контейнера
Рип Deadmauvlad
Рейтинг
picpic
Список эпизодов
01. Galileo DNA / ДНК Галилео
02. Messier / Мессье
03. Goldfish Life / Будни Золотой рыбки
04. Snow Gift / Снежный дар
05. Constellatory Dreams / Мечты о звёздах
06. Galileo Tesoro / Наследие Галилео
07. Salt Fish / Морская рыба
08. Giappone / Япония
09. Space-Time Goldfish (Part 1) / Приключения Золотой рыбки во времени (часть первая)
10. Space-Time Goldfish (Part 2) / Приключения Золотой рыбки во времени (часть вторая)
11. Galileo Judge / Суд над Галилео
MI

Код:

Общее
Полное имя                               : G:\anime\Раздача\Девы.Галилея.2013.RUS.JAP.S01.BDRip.Deadmauvlad\Devy.Galileya.2013.Dub.FAN.S01.BDRip.Deadmauvlad.EP.01.avi
Формат                                   : AVI
Формат/Информация                        : Audio Video Interleave
Размер файла                             : 333 Мбайт
Продолжительность                        : 22 м. 52 с.
Общий поток                              : 2033 Кбит/сек
Название фильма                          : Devy.Galileya.2013.Dub.FAN.S01.BDRip.Deadmauvlad.EP.01
Режиссёр                                 : Deadmauvlad
Жанр                                     : Action/Adventure
Программа кодирования                    : VirtualDubMod 1.5.10.3 (build 2550/release)
Формат оригинала/Имя                     : Anime
Авторское право                          : Дубляж Т/К FAN
Примечание                               : Deadmauvlad

Видео
Идентификатор                            : 0
Формат                                   : MPEG-4 Visual
Профиль формата                          : Advanced [email protected]
Настройки формата                        : BVOP1 / Custom Matrix
Параметр BVOP формата                    : 1
Параметр QPel формата                    : Нет
Параметр GMC формата                     : Без точки перехода
Параметр матрицы формата                 : Выборочная
Идентификатор кодека                     : XVID
Идентификатор кодека/Подсказка           : XviD
Продолжительность                        : 22 м. 52 с.
Битрейт                                  : 1635 Кбит/сек
Ширина                                   : 720 пикселей
Высота                                   : 400 пикселей
Соотношение сторон                       : 16:9
Частота кадров                           : 23,976 (24000/1001) кадра/сек
Цветовое пространство                    : YUV
Субдискретизация насыщенности            : 4:2:0
Битовая глубина                          : 8 бит
Тип развёртки                            : Прогрессивная
Метод сжатия                             : С потерями
Бит/(Пиксели*Кадры)                      : 0.237
Размер потока                            : 267 Мбайт (80%)
Библиотека кодирования                   : XviD 73

Аудио #1
Идентификатор                            : 1
Формат                                   : AC-3
Формат/Информация                        : Audio Coding 3
Коммерческое название                    : Dolby Digital
Идентификатор кодека                     : 2000
Продолжительность                        : 22 м. 52 с.
Вид битрейта                             : Постоянный
Битрейт                                  : 192 Кбит/сек
Каналы                                   : 2 канала
Channel layout                           : L R
Частота                                  : 48,0 КГц
Частота кадров                           : 31,250 кадров/сек (1536 SPF)
Битовая глубина                          : 16 бит
Метод сжатия                             : С потерями
Размер потока                            : 31,4 Мбайт (9%)
Выравнивание                             : Разделение по промежуткам
Продолжительность промежутка             : 42  мс. (1,00 видеокадр)
Время предзагрузки промежутка            : 500  мс.
ServiceKind/String                       : Complete Main

Аудио #2
Идентификатор                            : 2
Формат                                   : AC-3
Формат/Информация                        : Audio Coding 3
Коммерческое название                    : Dolby Digital
Идентификатор кодека                     : 2000
Продолжительность                        : 22 м. 52 с.
Вид битрейта                             : Постоянный
Битрейт                                  : 192 Кбит/сек
Каналы                                   : 2 канала
Channel layout                           : L R
Частота                                  : 44,1 КГц
Частота кадров                           : 28,711 кадров/сек (1536 SPF)
Битовая глубина                          : 16 бит
Метод сжатия                             : С потерями
Размер потока                            : 31,4 Мбайт (9%)
Выравнивание                             : Разделение по промежуткам
Продолжительность промежутка             : 42  мс. (1,00 видеокадр)
Время предзагрузки промежутка            : 500  мс.
ServiceKind/String                       : Complete Main
Скриншоты
.Галилея.2013.RUS.JAP.S01.BDRip.Deadmauvlad.torrent
Трекер: Зарегистрирован

magnet ссылка

 


Скачать .torrent

74 KB

Статус: проверено (by Snowden в 14-Май-19 12:01)
Зарегистрирован: 14-Май-19 11:51
Скачан: 4 раза
Размер: 3.57 GB | 
Поблагодарили:
Скачать Девы Галилея / Galilei Donna (Сезон 01) (01-11 Серия из 11) (Ясуоми Умэцу) [2013, аниме, мультфильм, приключения , BDRip] DUB [СВ-Дубль] торрент
 


Похожие раздачи

RootT3000

post 14-Май-19 16:45 (спустя 4 часа)

Хелоу. А есть 720P или 1080P?

mayson95

post 14-Май-19 17:13 (спустя 27 минут)

RootT3000
Вообще есть, можете на няшке скачать и прикрутить звук )) Например
Скрытый текст
pic

Текущее время: 19-Авг 13:05

Часовой пояс: GMT + 3



Вы не можете начинать темы
Вы не можете отвечать на сообщения
Вы не можете редактировать свои сообщения
Вы не можете удалять свои сообщения
Вы не можете голосовать в опросах
Вы не можете прикреплять файлы к сообщениям
Вы не можете скачивать файлы