Loading...
Error
 

Скачать торрент Военный парад, посвященный 74-й годовщине Победы в ВОВ 1941-1945 годов [2019, Документальный, военный парад, HDTV 1080p]

 
Автор Сообщение

centoriuse

post 09-Май-19 13:37

pic
Военный парад, посвященный 74-й годовщине Победы в ВОВ 1941-1945 годов

Год выпуска: 2019
Страна: Россия, Россия, 1 HD
Жанр:Документальный, военный парад
Продолжительность: 01:13:06
Перевод: Не требуется
Субтитры: Отсутствует

Описание:
Военный парад, посвященный 74-й годовщине Победы в Великой Отечественной войне.
Каждый год 9 мая во многих странах мира отмечают День Победы над немецко-фашистскими захватчиками. Но нигде этот праздник не празднуют с таким размахом, как в России. В 2019 году отмечается 74 год со Дня Победы.


Качество: HDTV 1080p
Формат: MKV
Видео кодек: AVC
Аудио кодек: MP3
Видео: 1920x1080 (16:9), 25.000 fps, 5 000 Kbps
Аудио: 48.0 KHz, 2 ch, 256 Kbps
MediaInfo

Код:

Общее
Уникальный идентификатор                 : 60638491061857462200176777749267410093 (0x2D9E8C6F34668C95B1D372D7B126ECAD)
Полное имя                               : F:\видео\ТВ передачи\Парад Победы в Москве 2019 HDTVRip (1080i).mkv
Формат                                   : Matroska
Версия формата                           : Version 4
Размер файла                             : 2,69 Гбайт
Продолжительность                        : 1 ч. 13 м.
Режим общего битрейта                    : Постоянный
Общий поток                              : 5261 Кбит/сек
Программа кодирования                    : Lavf57.71.100
Библиотека кодирования                   : Lavf57.71.100
ErrorDetectionType                       : Per level 1

Видео
Идентификатор                            : 1
Формат                                   : AVC
Формат/Информация                        : Advanced Video Codec
Профиль формата                          : [email protected]
Настройки формата                        : CABAC / 1 Ref Frames
Параметр CABAC формата                   : Да
Параметр RefFrames формата               : 1 кадр
Параметр GOP формата                     : M=1, N=25
Идентификатор кодека                     : V_MPEG4/ISO/AVC
Продолжительность                        : 1 ч. 13 м.
Вид битрейта                             : Постоянный
Битрейт                                  : 5000 Кбит/сек
Ширина                                   : 1920 пикселей
Высота                                   : 1080 пикселей
Соотношение сторон                       : 16:9
Режим частоты кадров                     : Постоянный
Частота кадров                           : 25,000 кадров/сек
Цветовое пространство                    : YUV
Субдискретизация насыщенности            : 4:2:0
Битовая глубина                          : 8 бит
Тип развёртки                            : Прогрессивная
Бит/(Пиксели*Кадры)                      : 0.096
Размер потока                            : 2,50 Гбайт (93%)
Default                                  : Да
Forced                                   : Нет

Аудио
Идентификатор                            : 2
Формат                                   : MPEG Audio
Версия формата                           : Version 1
Профиль формата                          : Layer 3
Настройки формата                        : Joint stereo / MS Stereo
Идентификатор кодека                     : A_MPEG/L3
Идентификатор кодека/Подсказка           : MP3
Продолжительность                        : 1 ч. 13 м.
Вид битрейта                             : Постоянный
Битрейт                                  : 256 Кбит/сек
Каналы                                   : 2 канала
Частота                                  : 48,0 КГц
Метод сжатия                             : С потерями
Размер потока                            : 134 Мбайт (5%)
Библиотека кодирования                   : LAME3.99.5ªªªªªªªª
Язык                                     : Russian
Default                                  : Да
Forced                                   : Нет
Скриншоты:
в Москве 2019 HDTVRip (1080i).mkv.torrent
 ЗОЛОТАЯ РАЗДАЧА! СКАЧАННОЕ НЕ ЗАСЧИТЫВАЕТСЯ! 
Вечный
Трекер: Зарегистрирован

magnet ссылка

 


Скачать .torrent

14 KB

Статус: проверено (by Арт33 в 09-Май-19 13:45)
Зарегистрирован: 09-Май-19 13:37
Скачан: 62 раза
Размер: 2.69 GB | 
Поблагодарили:
Скачать Военный парад, посвященный 74-й годовщине Победы в ВОВ 1941-1945 годов [2019, Документальный, военный парад, HDTV 1080p] торрент
 


Похожие раздачи

pasha74_74

post 10-Май-19 20:49 (спустя 1 день 7 часов)

centoriuse

за моторолу clap angel abe

centoriuse

post 13-Май-19 21:49 (спустя 3 дня)

pasha74_74
Скрытый текст

Текущее время: 19-Авг 13:15

Часовой пояс: GMT + 3



Вы не можете начинать темы
Вы не можете отвечать на сообщения
Вы не можете редактировать свои сообщения
Вы не можете удалять свои сообщения
Вы не можете голосовать в опросах
Вы не можете прикреплять файлы к сообщениям
Вы не можете скачивать файлы