Loading...
Error
 

Скачать торрент Внук мудреца | Kenja no Mago (Тамура Масафуми) [TV-1] [12 из 12] [JAP+RUS HSUB] [2019 г., комедия, фэнтези, WEBRip 1080p]

 
Автор Сообщение

MoscowGolem

post 17-Апр-19 21:59

pic
pic

賢者の孫 | Внук мудреца | Kenja no Mago

pic
Год выхода: 2019
Жанр: комедия, фэнтези
Тип: TV
Продолжительность: 12 эп. по ~ 00:25:00
Количество серий: 12 из 12
Дата выпуска: c 10.04.2019 по 26.06.2019
Производство: Япония, Студия Silver Link
Автор оригинала: Ёсиока Цуёси
Режиссер: Тамура Масафуми
Ссылки: World-Art, ANN, AniDB, MyAnimeList, Сетка вещания

Перевод : Отсутствует.
Субтитры: русские (Wakanim.tv), неотключаемые.
Описание:
Молодой офисный служащий гибнет под колёсами автомобиля, но это не конец истории, а самое начало, ведь герою суждено переродиться в фэнтезийном мире! Младенца подбирает известный на весь свет мудрец и отшельник Мерлин, нарекает Сином и растит как внука. Со временем выясняется, что мальчик помнит свою прошлую жизнь. Но пригодятся ли герою эти знания? Воспитанный вдали от общества, он не имеет ни малейшего представления о жизни в нынешнем мире. По совету знакомого Мерлин отправляет внука в академию магии, где и начинаются приключения простодушного Сина.
Качество видео: WEBRip 1080p
Формат: MP4
Видео кодек: x264
Аудио кодек: AAC
Видео: AVC ([email protected]), 1920x1080 (16:9), ~23.976 fps, ~4.1 Mb/s
Аудио : AAC, 48.0 KHz, 128 kbps, 2 ch (Японский, Silver Link)
Скриншоты:
Скриншоты:
    
Эпизоды:
01. В столицу за жизненным опытом
02. Новичок рвёт шаблоны
03. ЧП в академии!
04. Разоблачение
05. Герой, каких свет не видывал
06. Начало войны и совместные учения
07. Едем в лагерь!
08. Признание под звёздным небом
09. Знакомство с родителями и помолвка
10. Гибель Империи
11. Сильнейший в истории отряд магов
12. Пора увидеть мир
Команда актеров дубляжа и переводчиков русской версии:
у Wakanim.tv на подряде на Внука мудреца - ТО Студийная Банда Wakanim / перевод - Истари Комикс.
Дополнительная информация:
лучший тайтл сезона, грузовик кун! всесильный гг, рос в изоляции) помнит игры и хентай из японии) умненький! )
Media Info
General
Unique ID : 0 (0x0)
Complete name : \\Kenja no Mago [2019] [WEBRip] [1080p] [JAP + RUS HSUB]\Kenja no Mago - 01 (WEBRip 1920x1080 x264 AAC Jap + Rus Sub).mp4
Format : MPEG-4
Format profile : Base Media
Codec ID : isom (isom/avc1)
File size : 716 MiB
Duration : 23 min 40 s
Overall bit rate mode : Variable
Overall bit rate : 4 229 kb/s

Video
ID : 1
Format : AVC
Format/Info : Advanced Video Codec
Format profile : [email protected]
Format settings : CABAC / 4 Ref Frames
Format settings, CABAC : Yes
Format settings, ReFrames : 4 frames
Codec ID : avc1
Codec ID/Info : Advanced Video Coding
Duration : 23 min 40 s
Bit rate : 4 100 kb/s
Maximum bit rate : 11.4 Mb/s
Width : 1 920 pixels
Height : 1 080 pixels
Display aspect ratio : 16:9
Frame rate mode : Constant
Frame rate : 23.976 (24000/1001) FPS
Color space : YUV
Chroma subsampling : 4:2:0
Bit depth : 8 bits
Scan type : Progressive
Bits/(Pixel*Frame) : 0.082
Stream size : 694 MiB (97%)
Title : [wakanim]
Writing library : x264 core 155 r2721+213 66a46e0
Encoding settings : cabac=1 / ref=3 / deblock=1:0:0 / analyse=0x3:0x113 / me=hex / subme=6 / psy=1 / psy_rd=1.00:0.00 / mixed_ref=0 / me_range=16 / chroma_me=1 / trellis=1 / 8x8dct=1 / cqm=0 / deadzone=21,11 / fast_pskip=1 / chroma_qp_offset=-2 / threads=24 / lookahead_threads=4 / sliced_threads=0 / nr=0 / decimate=1 / interlaced=0 / bluray_compat=0 / constrained_intra=0 / bframes=3 / b_pyramid=2 / b_adapt=1 / b_bias=0 / direct=1 / weightb=1 / open_gop=0 / weightp=2 / keyint=48 / keyint_min=4 / scenecut=0 / intra_refresh=0 / rc_lookahead=40 / rc=abr / mbtree=1 / bitrate=4100 / ratetol=1.0 / qcomp=0.60 / qpmin=0 / qpmax=69 / qpstep=4 / vbv_maxrate=4700 / vbv_bufsize=23500 / nal_hrd=none / filler=0 / ip_ratio=1.40 / aq=1:1.00
Codec configuration box : avcC

Audio
ID : 2
Format : AAC LC
Format/Info : Advanced Audio Codec Low Complexity
Codec ID : mp4a-40-2
Duration : 23 min 39 s
Bit rate mode : Variable
Bit rate : 128 kb/s
Maximum bit rate : 134 kb/s
Channel(s) : 2 channels
Channel layout : L R
Sampling rate : 48.0 kHz
Frame rate : 46.875 FPS (1024 SPF)
Compression mode : Lossy
Stream size : 21.7 MiB (3%)
Language : Japanese
Kenja no Mago (2019) (WEBRip) (1080p) (JAP + RUS HSUB).torrent
 СЕРЕБРЯНАЯ РАЗДАЧА! СКАЧАННОЕ ЗАСЧИТЫВАЕТСЯ ТОЛЬКО НАПОЛОВИНУ! 
Вечный
Трекер: Зарегистрирован

magnet ссылка

 


Скачать .torrent

73 KB

Статус: проверено (by Snowden в 28-Июн-19 06:01)
Зарегистрирован: 27-Июн-19 21:50
Скачан: 74 раза
Размер: 14.35 GB | 
Поблагодарили:
Скачать Внук мудреца | Kenja no Mago (Тамура Масафуми) [TV-1] [12 из 12] [JAP+RUS HSUB] [2019 г., комедия, фэнтези, WEBRip 1080p] торрент
 


Похожие раздачи

MoscowGolem

post 24-Апр-19 21:55 (спустя 6 дней)

03 серия +

grammer91

post 01-Май-19 22:21 (спустя 7 дней)

А сабы к 4 серии сегодня будут?

MoscowGolem

post 01-Май-19 22:24 (спустя 3 минуты)

grammer91
скорее всего завтра уже.

grammer91

post 01-Май-19 23:24 (спустя 59 минут)

MoscowGolem Завтра значит завтра, буду ждать)

MoscowGolem

post 02-Май-19 04:18 (спустя 4 часа)

04 серия +

grammer91

post 02-Май-19 15:19 (спустя 11 часов)

yes Спасибо)

MoscowGolem

post 09-Май-19 00:09 (спустя 6 дней)

5 серия +

Sith

post 09-Май-19 00:22 (спустя 13 минут)

Скачал да не то... С переводом сегодня будет ?

MoscowGolem

post 09-Май-19 00:44 (спустя 21 минута)

Sith
вы бы хоть поискали) дубляж РАНЬШЕ выложен был чем субтитры)

MoscowGolem

post 15-Май-19 22:16 (спустя 6 дней)

6 серия +

SNAFvS

post 15-Май-19 23:51 (спустя 1 час 34 минуты)

оо спс, а то твари шикимори забанили

MoscowGolem

post 22-Май-19 21:47 (спустя 6 дней)

7 серия +

MoscowGolem

post 30-Май-19 07:38 (спустя 7 дней)

8 серия +

MoscowGolem

post 05-Июн-19 20:38 (спустя 6 дней)

9 серия +

MoscowGolem

post 13-Июн-19 18:25 (спустя 7 дней)

10 серия +

MoscowGolem

post 19-Июн-19 21:14 (спустя 6 дней)

11 серия +

MoscowGolem

post 27-Июн-19 21:51 (спустя 8 дней)

12 серия +, ждем 2й сезон.

Текущее время: 19-Авг 13:11

Часовой пояс: GMT + 3



Вы не можете начинать темы
Вы не можете отвечать на сообщения
Вы не можете редактировать свои сообщения
Вы не можете удалять свои сообщения
Вы не можете голосовать в опросах
Вы не можете прикреплять файлы к сообщениям
Вы не можете скачивать файлы