Loading...
Error
 

Скачать торрент Comedy Club (15 сезон: 1-5 выпуск) [2018, ТВ-шоу, юмор, WEB-DL 1080p]

 
Автор Сообщение

ilyash_rekviem

post 26-Мар-19 21:48

Comedy Club

pic
Информация о фильме
picГод выхода: 2018
picСтрана: Россия, Comedy Club Production, Телеканал ТНТ
picЖанр: ТВ-шоу, юмор
picПродолжительность: ~ 00:47:00
picСезоны / серии: 15 сезон / 1-5 серии
picПеревод: Не требуется
picCубтитры: Отсутствуют
picВ ролях: Гарик Мартиросян, Павел Воля, Тимур Батрутдинов, Александр Ревва, Гавриил Гордеев, Олег Верещагин (I), Дмитрий Сорокин, Зураб Матуа, Андрей Аверин, Алексей Лихницкий, Роман Юнусов, Антон Лирник, Андрей Молочный, Александр Незлобин, Дмитрий Хрусталёв, Виктор Васильев (III), Сергей Бессмертный, Игорь Меерсон, Семён Слепаков
О фильме
Невероятная энергетика, уютная атмосфера, гениальный юмор – все это слагаемые успеха самого успешного, модного, смешного и талантливого шоу молодых юмористов, которые никогда не придерживаются никаких правил и границ.
Файл
picКачество: WEB-DL 1080p
picФормат: AVI
picВидео кодек: AVC
picАудио кодек: AC3
picВидео: MPEG-4 AVC, 5000 Кбит/с, 1920x1080, 25 Кадр/с
picАудио #1: AC3, 2 ch, 192 Кбит/с, 48.0 KHz | RUS
MediaInfo

Код:

D:\Comedy Club.S15.WEB-DL.(1080p)\Comedy Club.S15E01.WEB-DL.1080.25Kuzmich.mkv
  General
    Unique ID : 205823683400668269274322044769210911034 (0x9AD8331341053697AC6F2F6059BEC93A)
    Complete name : D:\Comedy Club.S15.WEB-DL.(1080p)\Comedy Club.S15E01.WEB-DL.1080.25Kuzmich.mkv
    Format : Matroska
    Format version : Version 2
    File size : 1.69 GiB
    Duration : 46mn 44s
    Overall bit rate mode : Constant
    Overall bit rate : 5 179 Kbps
    Encoded date : UTC 2019-02-22 18:55:10
    Writing application : mkvmerge v4.0.0 ('The Stars were mine') сборка от Jun  6 2010 16:18:42
    Writing library : libebml v1.0.0 + libmatroska v1.0.0
  Video #1
    ID : 1
    Format : AVC
    Format/Info : Advanced Video Codec
    Format profile : [email protected]
    Format settings, CABAC : No
    Format settings, ReFrames : 4 frames
    Format settings, GOP : M=1, N=50
    Codec ID : V_MPEG4/ISO/AVC
    Duration : 46mn 44s
    Bit rate mode : Constant
    Bit rate : 5 000 Kbps
    Width : 1 920 pixels
    Height : 1 080 pixels
    Display aspect ratio : 16:9
    Frame rate : 25.000 fps
    Standard : PAL
    Color space : YUV
    Chroma subsampling : 4:2:0
    Bit depth : 8 bits
    Scan type : Progressive
    Bits/(Pixel*Frame) : 0.096
    Stream size : 1.59 GiB (94%)
    Language : Russian
    Default : Yes
    Forced : No
    Color primaries : BT.709-5, BT.1361, IEC 61966-2-4, SMPTE RP177
    Transfer characteristics : BT.709-5, BT.1361
    Matrix coefficients : BT.709-5, BT.1361, IEC 61966-2-4 709, SMPTE RP177
  Audio #2
    ID : 2
    Format : AC-3
    Format/Info : Audio Coding 3
    Mode extension : CM (complete main)
    Format settings, Endianness : Big
    Codec ID : A_AC3
    Duration : 46mn 44s
    Bit rate mode : Constant
    Bit rate : 192 Kbps
    Channel(s) : 2 channels
    Channel positions : Front: L R
    Sampling rate : 48.0 KHz
    Bit depth : 16 bits
    Compression mode : Lossy
    Stream size : 64.2 MiB (4%)
    Language : Russian
    Default : Yes
    Forced : No
Скриншоты
Раздача ведётся путём добавления новых серий
Внимание! Раздача ведётся путём добавления новых серий; при каждом добавлении создаётся новый торрент.
Чтобы начать докачку новой серии, пользователям необходимо сделать следующее:
1. Остановить скачивание;
2. Удалить старый торрент у себя из клиента (старые серии удалять не надо);
3. Скачать новый торрент и запустить его у себя в клиенте вместо старого, при этом указать клиенту путь в старую папку куда и должно происходить скачивание новых серий. Ваш клиент при этом должен произвести хеширование (проверку) старой папки и будет докачивать только те серии, которых у вас ещё нет. Старые серии при этом не удаляются, а продолжают раздаваться! Eсли вы уже удалили старые серии, то предотвратить повторную закачку старых серий можно, отжав галочку в соответствующих местах при запуске нового торрента.
pic
Comedy Club.S15.WEB-DL.(1080p).torrent
Трекер: Зарегистрирован

magnet ссылка

 


Скачать .torrent

43 KB

Статус: проверено (by ilyash_rekviem в 26-Мар-19 21:50)
Зарегистрирован: 26-Мар-19 21:48
Скачан: 26 раз
Размер: 8.38 GB | 
Поблагодарили:
Скачать Comedy Club (15 сезон: 1-5 выпуск) [2018, ТВ-шоу, юмор, WEB-DL 1080p] торрент
 


Похожие раздачи

ВИКТОР1980

post 26-Мар-19 22:32 (спустя 43 минуты)

спасибо! заценим!

Текущее время: 20-Апр 09:17

Часовой пояс: GMT + 3



Вы не можете начинать темы
Вы не можете отвечать на сообщения
Вы не можете редактировать свои сообщения
Вы не можете удалять свои сообщения
Вы не можете голосовать в опросах
Вы не можете прикреплять файлы к сообщениям
Вы не можете скачивать файлы