Loading...
Error
 

Скачать торрент Лунный свет 2: Вселенная света в 3Д / Lichtmond 2: Universe of Light 3D (Giorgio & Martin Koppehele) [2012,Документальный, видовой, музыка,BDRip 1080p][3D] горизонтальная анаморфная стереопара

 
Автор Сообщение

brother225

post 12-Фев-19 15:56

pic
Лунный свет 2: Вселенная света / Lichtmond 2: Universe of Light

Год выпуска: 2012
Страна: Германия
Жанр: Документальный, видовой, музыка
Продолжительность: 00:50:57
Перевод: Не требуется
Субтитры: отсутствуют
Режиссёр: Giorgio & Martin Koppehele
Описание: Настройтесь на новое впечатляющее путешествие в мир фэнтези, в лучах лунного света, наполненное волшебными звуками проекта "Лунный свет 2". Погрузитесь в неординарную музыку и пусть ваши FullHD экраны превратятся на один час в двери сказочных миров, которые доселе Вам не приходилось видеть, но наверняка вы мечтали о них. Это удивительное Blu-ray издание, с уникальным звуковым рядом, как по качеству так и по наполнению, невиданной красоты, видеорядом футуристических 3D миров. Ни в коем случае не пропустите этот диск, пусть он наполнит Ваш дом, яркими красками и высококачественным божественным звучанием произведений Giorgio и Martin Koppehele.
Качество: BDRip 1080p
Формат: MKV
Формат 3D: SbS / горизонтальная анаморфная стереопара
Порядок ракурсов: левый ракурс первый
Видео кодек: AVC
Аудио кодек: AC3
Видео: AVC 1920х1080 23.976 fps 10000 Kb/s,0.201 bpp
Аудио: AC3, 6 ch, , 48 KHz 640 Kb/s
Треклист
01. Solar dust [Part 1]
02. Solar dust [Part 2]
03. Soul affinity
04. Distant dream
05. Universe of light
06. Magic forest
07. Precious life (feat. Alan Parsons & the SubClones)
08. Star suite
09. State of mind
10. Shadow play
11. Mystic eyes
12. Moments of joy (feat. I Muvrini)
13. Lunar dust
14. Precious life (Single Mix) (feat. Alan Parsons & the SubClones)
MediaInfo
Complete name : H:\мои раздачи\Lichtmond 2_ Universe of Light 3D 3D-SBS 1080p.mkv
Format : Matroska
Format version : Version 4
File size : 3.79 GiB
Duration : 50 min 56 s
Overall bit rate : 10.6 Mb/s
Encoded date : UTC 2019-02-12 12:44:53
Writing application : mkvmerge v31.0.0 ('Dolores In A Shoestand') 64-bit
Writing library : libebml v1.3.6 + libmatroska v1.4.9

Video
ID : 1
Format : AVC
Format/Info : Advanced Video Codec
Format profile : [email protected]
MultiView_Count : 2
MultiView_Layout : Side by Side (left eye first)
Format settings : CABAC / 4 Ref Frames
Format settings, CABAC : Yes
Format settings, ReFrames : 4 frames
Codec ID : V_MPEG4/ISO/AVC
Duration : 50 min 56 s
Bit rate : 10 000 kb/s
Width : 1 920 pixels
Height : 1 080 pixels
Display aspect ratio : 16:9
Frame rate mode : Constant
Frame rate : 23.976 (24000/1001) FPS
Color space : YUV
Chroma subsampling : 4:2:0
Bit depth : 8 bits
Scan type : Progressive
Bits/(Pixel*Frame) : 0.201
Stream size : 3.56 GiB (94%)
Title : 3D Half-SBS (x264 [email protected] 2-pass 10000 Kbps)
Writing library : x264 core 155 r2901 7d0ff22
Encoding settings : cabac=1 / ref=4 / deblock=1:-2:-1 / analyse=0x3:0x133 / me=umh / subme=10 / psy=1 / psy_rd=1.00:0.15 / mixed_ref=1 / me_range=24 / chroma_me=1 / trellis=2 / 8x8dct=1 / cqm=0 / deadzone=21,11 / fast_pskip=1 / chroma_qp_offset=-3 / threads=34 / lookahead_threads=3 / sliced_threads=0 / nr=0 / decimate=1 / interlaced=0 / bluray_compat=0 / constrained_intra=0 / bframes=6 / b_pyramid=2 / b_adapt=2 / b_bias=0 / direct=3 / weightb=1 / open_gop=0 / weightp=2 / keyint=250 / keyint_min=23 / scenecut=40 / intra_refresh=0 / rc_lookahead=60 / rc=2pass / mbtree=1 / bitrate=10000 / ratetol=1.0 / qcomp=0.60 / qpmin=0 / qpmax=69 / qpstep=4 / cplxblur=20.0 / qblur=0.5 / vbv_maxrate=62500 / vbv_bufsize=78125 / nal_hrd=none / filler=0 / frame-packing=3 / ip_ratio=1.40 / aq=1:1.00
Default : Yes
Forced : No
Color range : Limited
Matrix coefficients : BT.709

Audio
ID : 2
Format : AC-3
Format/Info : Audio Coding 3
Commercial name : Dolby Digital
Codec ID : A_AC3
Duration : 50 min 56 s
Bit rate mode : Constant
Bit rate : 640 kb/s
Channel(s) : 6 channels
Channel layout : L R C LFE Ls Rs
Sampling rate : 48.0 kHz
Frame rate : 31.250 FPS (1536 SPF)
Bit depth : 16 bits
Compression mode : Lossy
Stream size : 233 MiB (6%)
Service kind : Complete Main
Default : Yes
Forced : No

Menu
00:00:00.000 : :1 - 0:00:00
00:05:00.000 : :2 - 0:05:00
00:10:00.000 : :3 - 0:10:00
00:15:00.000 : :4 - 0:15:00
00:20:00.000 : :5 - 0:20:00
00:25:00.000 : :6 - 0:25:00
00:30:00.000 : :7 - 0:30:00
00:35:00.000 : :8 - 0:35:00
00:40:00.000 : :9 - 0:40:00
00:45:00.000 : :10 - 0:45:00
00:50:00.000 : :11 - 0:50:00
x264log
x264 [info]: frame I:302 Avg QP:16.86 size:287810
x264 [info]: frame P:17231 Avg QP:19.88 size:123866
x264 [info]: frame B:55756 Avg QP:22.93 size: 28673
x264 [info]: consecutive B-frames: 1.6% 1.6% 6.6% 43.0% 22.3% 23.8% 1.0%
x264 [info]: SSIM Mean Y:0.9849365 (18.221db)
encoded 73289 frames, 13.97 fps, 9997.44 kb/s
Скриншоты
Lichtmond 2_ Universe of Light 3D 3D-SBS 1080p.mkv.torrent
Трекер: Зарегистрирован

magnet ссылка

 


Скачать .torrent

19 KB

Статус: проверено (by Snowden в 12-Фев-19 17:37)
Зарегистрирован: 12-Фев-19 15:56
Скачан: 10 раз
Размер: 3.79 GB | 
Поблагодарили:
Скачать Лунный свет 2: Вселенная света в 3Д / Lichtmond 2: Universe of Light 3D (Giorgio & Martin Koppehele) [2012,Документальный, видовой, музыка,BDRip 1080p][3D] горизонтальная анаморфная стереопара торрент
 


Похожие раздачи

Snowden

post 12-Фев-19 16:01 (спустя 4 минуты)

brother225
Перевод: ?

brother225

post 12-Фев-19 16:05 (спустя 3 минуты)

Snowden
готовченко

Snowden

post 12-Фев-19 17:37 (спустя 1 час 32 минуты)

Ц brother225 писал(а):

Перевод: Не требуется
Музыкальное сопровождение?

brother225

post 13-Фев-19 09:11 (спустя 15 часов)

Snowden
да

MITALAS

post 14-Мар-19 00:31 (спустя 1 месяц)

Очень круто! Спасибо.

Текущее время: 23-Мар 11:19

Часовой пояс: GMT + 3



Вы не можете начинать темы
Вы не можете отвечать на сообщения
Вы не можете редактировать свои сообщения
Вы не можете удалять свои сообщения
Вы не можете голосовать в опросах
Вы не можете прикреплять файлы к сообщениям
Вы не можете скачивать файлы