Loading...
Error
 

Скачать торрент Christina Aguilera - Music Videos [1998-2010, Pop, R'N'B, DVDRip-AVC]

 
Автор Сообщение

Skywalker007

post 10-Ноя-18 23:20

pic
Christina Aguilera - Music Videos

Год выпуска: 1998-2010
Страна: США, Private Collection, Promo DVD, RCA
Жанр: Pop, R'N'B
Продолжительность: 01:25:50 + 00:35:40
Описание: Коллекция музыкальных клипов.
Tрэклист
Disc One:

01. Genie In A Bottle (1999)
02. What A Girl Wants (1999)
03. I Turn To You (2000)
04. Come On Over Baby (All I Wan't Is You) (2000)
05. All Star Tribute - What's Going On (R&B Mix) (2001)
06. Lady Marmalade (Christina Aguilera, Lil' Kim, Mya & Pink) (2001)
07. Nobody Wants To Be Lonely (feat. Ricky Martin) (2001)
08. Not Myself Tonight (2010)
09. Dirrty (feat. Redman) (2002)
10. Can't Hold Us Down (feat. Lil' Kim) (2003)
11. Fighter (2003)
12. The Voice Within (2003)
13. Tilt Ya Head Back (feat. Nelly) (2004)
14. Car Wash (feat. Missy Elliott) (2004)
15. Ain't No Other Man (2006)
16. Hurt (2006)
17. Candyman (2007)
18. Ven Conmigo (Solamente Tu) (2000)
19. Pero Me Acuerdo De Ti (2008)
20. Genio Atrapado (1999)
21. Reflection (1998)

Disc Two:

01. Beautiful (2002)
02. I Turn To You (2nd Version) (2000)
03. So Emotional (2000)
04. Por Siempre Tu (2000)
05. The Christmas Song (1999)
06. Medley (feat. Madonna & Britney Spears) (Live VMA 2003)

07. Tell Me (P.Diddy feat. Christina Aguilera) (2006)
08. Save Me From Myself (2008)
09. Keeps Getting Better (2008)

Качество: DVDRip-AVC (сохранены оригинальные чаптеры как на DVD)
Формат: MKV
Видео кодек: AVC
Аудио кодек: AC3
Видео 1: NTSC 4:3 (720x480), 29.970 fps, MPEG-4 AVC, 4580 Кбит/с, 0.442 bit/pixel
Видео 2: NTSC 4:3 (720x480), VFR 28,891 fps, MPEG-4 AVC, 4580 Кбит/с, 0.459 bit/pixel
Аудио: English (AC3, 48KHz, 6 ch, 448 Кбит/с)
Скриншоты
Media Info - Disc One
Формат : Matroska
Версия формата : Version 4 / Version 2
Размер файла : 3,00 Гбайт
Продолжительность : 1 ч. 25 м.
Общий поток : 5002 Кбит/сек
Название фильма : Christina Aguilera - Music Videos (1998-2010) Disc One
Дата кодирования : UTC 2017-02-18 14:15:09
Программа кодирования : mkvmerge v7.6.0 ('Garden of Dreams') 64bit built on Feb 8 2015 13:04:34
Библиотека кодирования : libebml v1.3.1 + libmatroska v1.4.2

Видео
Идентификатор : 1
Формат : AVC
Формат/Информация : Advanced Video Codec
Профиль формата : [email protected]
Параметр CABAC формата : Да
Параметр ReFrames формата : 2 кадра
Идентификатор кодека : V_MPEG4/ISO/AVC
Продолжительность : 1 ч. 25 м.
Битрейт : 4580 Кбит/сек
Ширина : 720 пикселей
Высота : 480 пикселей
Соотношение сторон : 4:3
Режим частоты кадров : Постоянный
Частота кадров : 29,970 (29970/1000) кадров/сек
Стандарт вещания : NTSC
Цветовое пространство : YUV
Субдискретизация насыщенности : 4:2:0
Битовая глубина : 8 бит
Тип развёртки : MBAFF
Метод сохранения типа развёртки : Чередующиеся поля
Порядок развёртки : Верхнее поле первое
Бит/(Пиксели*Кадры) : 0.442
Размер потока : 2,73 Гбайт (91%)
Библиотека кодирования : x264 core 144 r2525
Настройки программы : cabac=1 / ref=2 / deblock=1:0:0 / analyse=0x1:0x131 / me=umh / subme=9 / psy=1 / psy_rd=1.00:0.10 / mixed_ref=0 / me_range=64 / chroma_me=1 / trellis=1 / 8x8dct=0 / cqm=0 / deadzone=21,11 / fast_pskip=1 / chroma_qp_offset=-3 / threads=12 / lookahead_threads=1 / sliced_threads=0 / nr=0 / decimate=1 / interlaced=tff / bluray_compat=0 / constrained_intra=0 / bframes=0 / weightp=0 / keyint=299 / keyint_min=29 / scenecut=0 / intra_refresh=0 / rc_lookahead=0 / rc=2pass / mbtree=0 / bitrate=4580 / ratetol=1.0 / qcomp=0.60 / qpmin=10 / qpmax=69 / qpstep=4 / cplxblur=20.0 / qblur=0.5 / vbv_maxrate=4580 / vbv_bufsize=14000 / nal_hrd=none / filler=0 / ip_ratio=1.40 / aq=0
Default : Да
Forced : Нет
Цветовой диапазон : Limited

Аудио
Идентификатор : 2
Формат : AC-3
Формат/Информация : Audio Coding 3
Расширение режима : CM (complete main)
Параметр Endianness формата : Big
Идентификатор кодека : A_AC3
Продолжительность : 1 ч. 25 м.
Вид битрейта : Постоянный
Битрейт : 448 Кбит/сек
Каналы : 6 каналов
Расположение каналов : Front: L C R, Side: L R, LFE
Частота : 48,0 КГц
Частота кадров : 31,250 кадров/сек (1536 spf)
Метод сжатия : С потерями
Задержка видео : -5 мс.
Размер потока : 275 Мбайт (9%)
Язык : English
Default : Да
Forced : Нет

Меню
00:00:00.000 : :01. Genie In A Bottle (1999)
00:03:37.400 : :02. What A Girl Wants (1999)
00:07:44.000 : :03. I Turn To You (2000)
00:11:47.867 : :04. Come On Over Baby (All I Wan't Is You) (2000)
00:15:39.567 : :05. All Star Tribute - What's Going On (R&B Mix) (2001)
00:20:32.600 : :06. Lady Marmalade (Christina Aguilera, Lil' Kim, Mya & Pink) (2001)
00:25:06.567 : :07. Nobody Wants To Be Lonely (feat. Ricky Martin) (2001)
00:29:17.433 : :08. Not Myself Tonight (2010)
00:32:23.633 : :09. Dirrty (feat. Redman) (2002)
00:37:06.233 : :10. Can't Hold Us Down (feat. Lil' Kim) (2003)
00:41:36.667 : :11. Fighter (2003)
00:45:41.700 : :12. The Voice Within (2003)
00:50:09.267 : :13. Tilt Ya Head Back (feat. Nelly) (2004)
00:54:24.900 : :14. Car Wash (feat. Missy Elliott) (2004)
00:58:18.133 : :15. Ain't No Other Man (2006)
01:03:10.900 : :16. Hurt (2006)
01:07:42.633 : :17. Candyman (2007)
01:10:59.367 : :18. Ven Conmigo (Solamente Tu) (2000)
01:14:08.900 : :19. Peo Me Acuerdo De Ti (2008)
01:18:28.867 : :20. Genio Atrapado (1999)
01:22:09.100 : :21. Reflection (1998)
Media Info - Disc Two
Формат : Matroska
Версия формата : Version 4 / Version 2
Размер файла : 902 Мбайт
Продолжительность : 25 м.
Общий поток : 5003 Кбит/сек
Название фильма : Christina Aguilera - Music Videos (1998-2010) Disc Two
Дата кодирования : UTC 2017-02-18 15:22:56
Программа кодирования : mkvmerge v7.6.0 ('Garden of Dreams') 64bit built on Feb 8 2015 13:04:34
Библиотека кодирования : libebml v1.3.1 + libmatroska v1.4.2

Видео
Идентификатор : 1
Формат : AVC
Формат/Информация : Advanced Video Codec
Профиль формата : [email protected]
Параметр CABAC формата : Да
Параметр ReFrames формата : 2 кадра
Идентификатор кодека : V_MPEG4/ISO/AVC
Продолжительность : 25 м.
Битрейт : 4580 Кбит/сек
Ширина : 720 пикселей
Высота : 480 пикселей
Соотношение сторон : 4:3
Режим частоты кадров : Переменный
Частота кадров : 28,891 кадров/сек
Стандарт вещания : NTSC
Цветовое пространство : YUV
Субдискретизация насыщенности : 4:2:0
Битовая глубина : 8 бит
Тип развёртки : MBAFF
Метод сохранения типа развёртки : Чередующиеся поля
Порядок развёртки : Нижнее поле первое
Бит/(Пиксели*Кадры) : 0.459
Размер потока : 821 Мбайт (91%)
Библиотека кодирования : x264 core 144 r2525
Настройки программы : cabac=1 / ref=2 / deblock=1:0:0 / analyse=0x1:0x131 / me=umh / subme=9 / psy=1 / psy_rd=1.00:0.10 / mixed_ref=0 / me_range=64 / chroma_me=1 / trellis=1 / 8x8dct=0 / cqm=0 / deadzone=21,11 / fast_pskip=1 / chroma_qp_offset=-3 / threads=12 / lookahead_threads=1 / sliced_threads=0 / nr=0 / decimate=1 / interlaced=bff / bluray_compat=0 / constrained_intra=0 / bframes=0 / weightp=0 / keyint=299 / keyint_min=29 / scenecut=0 / intra_refresh=0 / rc_lookahead=0 / rc=2pass / mbtree=0 / bitrate=4580 / ratetol=1.0 / qcomp=0.60 / qpmin=10 / qpmax=69 / qpstep=4 / cplxblur=20.0 / qblur=0.5 / vbv_maxrate=4580 / vbv_bufsize=14000 / nal_hrd=none / filler=0 / ip_ratio=1.40 / aq=0
Default : Да
Forced : Нет
Цветовой диапазон : Limited

Аудио
Идентификатор : 2
Формат : AC-3
Формат/Информация : Audio Coding 3
Расширение режима : CM (complete main)
Параметр Endianness формата : Big
Идентификатор кодека : A_AC3
Продолжительность : 25 м.
Вид битрейта : Постоянный
Битрейт : 448 Кбит/сек
Каналы : 6 каналов
Расположение каналов : Front: L C R, Side: L R, LFE
Частота : 48,0 КГц
Частота кадров : 31,250 кадров/сек (1536 spf)
Метод сжатия : С потерями
Размер потока : 80,8 Мбайт (9%)
Язык : English
Default : Да
Forced : Нет

Меню
00:00:00.000 : :01. Beautiful (2002)
00:03:57.933 : :02. I Turn To You (2nd Version) (2000)
00:08:08.200 : :03. So Emotional (2000)
00:11:49.367 : :04. Por Siempre Tu (2000)
00:15:55.400 : :05. The Christmas Song (1999)
00:19:42.000 : :06. Medley (feat. Madonna & Britney Spears) (Live VMA 2003)
Формат : Matroska
Версия формата : Version 4 / Version 2
Размер файла : 376 Мбайт
Продолжительность : 10 м.
Общий поток : 5011 Кбит/сек
Название фильма : Christina Aguilera - Music Videos (1998-2010) Disc Two
Дата кодирования : UTC 2017-02-18 16:47:08
Программа кодирования : mkvmerge v7.6.0 ('Garden of Dreams') 64bit built on Feb 8 2015 13:04:34
Библиотека кодирования : libebml v1.3.1 + libmatroska v1.4.2

Видео
Идентификатор : 1
Формат : AVC
Формат/Информация : Advanced Video Codec
Профиль формата : [email protected]
Параметр CABAC формата : Да
Параметр ReFrames формата : 2 кадра
Идентификатор кодека : V_MPEG4/ISO/AVC
Продолжительность : 10 м.
Битрейт : 4580 Кбит/сек
Ширина : 720 пикселей
Высота : 540 пикселей
Соотношение сторон : 4:3
Режим частоты кадров : Постоянный
Частота кадров : 25,000 кадров/сек
Стандарт вещания : PAL
Цветовое пространство : YUV
Субдискретизация насыщенности : 4:2:0
Битовая глубина : 8 бит
Тип развёртки : MBAFF
Метод сохранения типа развёртки : Чередующиеся поля
Порядок развёртки : Верхнее поле первое
Бит/(Пиксели*Кадры) : 0.471
Размер потока : 342 Мбайт (91%)
Библиотека кодирования : x264 core 144 r2525
Настройки программы : cabac=1 / ref=2 / deblock=1:0:0 / analyse=0x1:0x131 / me=umh / subme=9 / psy=1 / psy_rd=1.00:0.10 / mixed_ref=0 / me_range=64 / chroma_me=1 / trellis=1 / 8x8dct=0 / cqm=0 / deadzone=21,11 / fast_pskip=1 / chroma_qp_offset=-3 / threads=12 / lookahead_threads=1 / sliced_threads=0 / nr=0 / decimate=1 / interlaced=tff / bluray_compat=0 / constrained_intra=0 / bframes=0 / weightp=0 / keyint=250 / keyint_min=25 / scenecut=0 / intra_refresh=0 / rc_lookahead=0 / rc=2pass / mbtree=0 / bitrate=4580 / ratetol=1.0 / qcomp=0.60 / qpmin=10 / qpmax=69 / qpstep=4 / cplxblur=20.0 / qblur=0.5 / vbv_maxrate=4580 / vbv_bufsize=14000 / nal_hrd=none / filler=0 / ip_ratio=1.40 / aq=0
Default : Да
Forced : Нет
Цветовой диапазон : Limited

Аудио
Идентификатор : 2
Формат : AC-3
Формат/Информация : Audio Coding 3
Расширение режима : CM (complete main)
Параметр Endianness формата : Big
Идентификатор кодека : A_AC3
Продолжительность : 10 м.
Вид битрейта : Постоянный
Битрейт : 448 Кбит/сек
Каналы : 6 каналов
Расположение каналов : Front: L C R, Side: L R, LFE
Частота : 48,0 КГц
Частота кадров : 31,250 кадров/сек (1536 spf)
Метод сжатия : С потерями
Размер потока : 33,6 Мбайт (9%)
Язык : English
Default : Да
Forced : Нет

Меню
00:00:00.000 : :07. Tell Me (P.Diddy feat. Christina Aguilera) (2006)
00:04:08.160 : :08. Save Me From Myself (2008)
00:07:27.440 : :09. Keeps Getting Better (2008)
Christina.Aguilera.Music.Videos.1998-2010.AVC.DVDRip.torrent
Трекер: Зарегистрирован

magnet ссылка

 


Скачать .torrent

22 KB

Статус: проверено (by Snowden в 11-Ноя-18 03:30)
Зарегистрирован: 10-Ноя-18 23:20
Скачан: 7 раз
Размер: 4.25 GB | 
Поблагодарили:
Скачать Christina Aguilera - Music Videos [1998-2010, Pop, R'N'B, DVDRip-AVC] торрент
 


Похожие раздачи

Текущее время: 16-Окт 19:58

Часовой пояс: GMT + 3



Вы не можете начинать темы
Вы не можете отвечать на сообщения
Вы не можете редактировать свои сообщения
Вы не можете удалять свои сообщения
Вы не можете голосовать в опросах
Вы не можете прикреплять файлы к сообщениям
Вы не можете скачивать файлы