Loading...
Error
 

Скачать торрент Битва экстрасенсов / Сезон: 19 / Серии: 1-14 из 14 (Фёдор Торстенсен, Ольга Шмид, Олег Чаурс) [2018, Реалити-шоу, HDTV 1080p] От [R.G.Generalfilm]

 
Автор Сообщение

White Smoke

post 23-Сен-18 03:38

pic
pic

pic Год выпуска: 2018
pic Страна: Россия
pic Жанр: Реалити-шоу
pic Продолжительность: ~01:32:38
pic Перевод: Не требуется [Русский]

pic Субтитры: Нет

Сезон: 19

Количество серий: 1-14 из 14
pic Режиссер:
Фёдор Торстенсен, Ольга Шмид, Олег Чаурс
Ведущий: pic
pic Описание:
«Битва экстрасенсов» на канале ТНТ доказывает: сверхъестественные способности существуют, а их обладатели могут спасти жизнь, найти пропавшего ребенка, рассказать о прошлом и будущем и просто вернуть потерянный телефон.

picКачество: HDTV 1080p Запись с pic
picФормат: MKV
picВидео кодек: AVC
picАудио кодек: AC3
picВидео: AVC, 1920x1080 (16:9), 7050 kbps, 25 fps, 0,136 bpp
picАудио: AC3 / 2.0 / 48 kHz / 192 kbps /
Доп. информация

pic pic

ОтчетМедиаИнфо
General
Unique ID : 232206253388240451437512307949829296092 (0xAEB14C33EEE84B6C8D921DC576C30FDC)
Complete name : E:\Запись с тв\Bitva ekstrasensov S19.2018.HDTV 1080p.RG GeneralFilm\Bitva ekstrasensov.s19.e01.2018.HDTV 1080p.by.White Smoke.R.G.Generalfilm.mkv
Format : Matroska
Format version : Version 4 / Version 2
File size : 4.68 GiB
Duration : 1 h 32 min
Overall bit rate mode : Constant
Overall bit rate : 7 236 kb/s
Movie name : Bitva ekstrasensov.s19.e01.2018.HDTV 1080p.by.White Smoke.R.G.Generalfilm.mkv
Encoded date : UTC 2018-09-22 23:19:51
Writing application : mkvmerge v6.8.0 ('Theme for Great Cities') 64bit built on Mar 2 2014 21:34:26
Writing library : libebml v1.3.0 + libmatroska v1.4.1
Cover : Yes
Attachments : cover.png

Video
ID : 1
Format : AVC
Format/Info : Advanced Video Codec
Format profile : [email protected]
Format settings, CABAC : Yes
Format settings, ReFrames : 3 frames
Codec ID : V_MPEG4/ISO/AVC
Duration : 1 h 32 min
Bit rate mode : Constant
Bit rate : 7 051 kb/s
Width : 1 920 pixels
Height : 1 080 pixels
Display aspect ratio : 16:9
Frame rate mode : Constant
Frame rate : 25.000 FPS
Standard : PAL
Color space : YUV
Chroma subsampling : 4:2:0
Bit depth : 8 bits
Scan type : Progressive
Bits/(Pixel*Frame) : 0.136
Stream size : 4.46 GiB (95%)
Default : Yes
Forced : No
Color range : Limited
Color primaries : BT.709
Transfer characteristics : BT.709
Matrix coefficients : BT.709

Audio
ID : 2
Format : AC-3
Format/Info : Audio Coding 3
Mode extension : CM (complete main)
Format settings, Endianness : Big
Codec ID : A_AC3
Duration : 1 h 32 min
Bit rate mode : Constant
Bit rate : 192 kb/s
Channel(s) : 2 channels
Channel positions : Front: L R
Sampling rate : 48.0 kHz
Frame rate : 31.250 FPS (1536 spf)
Compression mode : Lossy
Stream size : 127 MiB (3%)
Default : Yes
Forced : No
Скриншоты
Раздача ведётся путём добавления новых серий
Внимание! Раздача ведётся путём добавления новых серий; при каждом добавлении создаётся новый торрент.
Чтобы начать докачку новой серии, пользователям необходимо сделать следующее:
1. Остановить скачивание;
2. Удалить старый торрент у себя из клиента (старые серии удалять не надо);
3. Скачать новый торрент и запустить его у себя в клиенте вместо старого, при этом указать клиенту путь в старую папку куда и должно происходить скачивание новых серий. Ваш клиент при этом должен произвести хеширование (проверку) старой папки и будет докачивать только те серии, которых у вас ещё нет. Старые серии при этом не удаляются, а продолжают раздаваться! Eсли вы уже удалили старые серии, то предотвратить повторную закачку старых серий можно, отжав галочку в соответствующих местах при запуске нового торрента.
pic
Bitva ekstrasensov S19.2018.HDTV 1080p.RG GeneralFilm.torrent
 ЗОЛОТАЯ РАЗДАЧА! СКАЧАННОЕ НЕ ЗАСЧИТЫВАЕТСЯ! 
Вечный
Трекер: Зарегистрирован

magnet ссылка

 


Скачать .torrent

118 KB

Статус: проверено (by White Smoke в 07-Янв-19 13:27)
Зарегистрирован: 07-Янв-19 13:26
Скачан: 311 раз
Размер: 46.3 GB | 
Поблагодарили:
Скачать Битва экстрасенсов / Сезон: 19 / Серии: 1-14 из 14 (Фёдор Торстенсен, Ольга Шмид, Олег Чаурс) [2018, Реалити-шоу, HDTV 1080p] От [R.G.Generalfilm] торрент
 


Похожие раздачи

White Smoke

post 07-Окт-18 00:33 (спустя 13 дней)

Добавлена 3 серия

White Smoke

post 14-Окт-18 02:51 (спустя 7 дней)

Добавлена 4 серия

White Smoke

post 21-Окт-18 18:15 (спустя 7 дней)

Добавлена 5 серия

sheva912

post 21-Окт-18 21:21 (спустя 3 часа)

720p планируется?

White Smoke

post 22-Окт-18 14:06 (спустя 16 часов)

sheva912
я делаю только 1080

Spaniol

post 28-Окт-18 18:11 (спустя 6 дней)

Спасибо за ваши старание! Жена обожает эту фантастику )

White Smoke

post 28-Окт-18 20:55 (спустя 2 часа 44 минуты)

6 серия

kurt29

post 28-Окт-18 21:15 (спустя 19 минут)

Понеслось мракобесие!

White Smoke

post 04-Ноя-18 14:19 (спустя 6 дней)

7 серия

White Smoke

post 11-Ноя-18 04:39 (спустя 6 дней)

8 серия

RAF1987

post 18-Ноя-18 22:03 (спустя 7 дней)

Не перевелись мракобесы в россии.

Daron13

post 25-Ноя-18 16:17 (спустя 6 дней)

жена спрашивает: "А чего тянут с обновлением раздачи?" ))))

Spaniol

post 02-Дек-18 23:28 (спустя 7 дней)

Жалко не продолжаете! ведь уже 12 на подходе!

k1162783

post 03-Дек-18 03:37 (спустя 4 часа)

такая же раздача на kinozal.tv и там тоже висняк

White Smoke

post 20-Дек-18 02:33 (спустя 16 дней)

ребят сорян все те кто ждал простите проблема с каналом приходилось с повтора писать

Legrus

post 18-Янв-19 09:26 (спустя 29 дней)

Раздайте..

Текущее время: 26-Авг 05:54

Часовой пояс: GMT + 3



Вы не можете начинать темы
Вы не можете отвечать на сообщения
Вы не можете редактировать свои сообщения
Вы не можете удалять свои сообщения
Вы не можете голосовать в опросах
Вы не можете прикреплять файлы к сообщениям
Вы не можете скачивать файлы