Loading...
Error
 

Скачать торрент Покорение небес с Дэвидом Аттенборо / David Attenborough's Conquest of the Skies (1-4 серии из 4) (David Lee) [2014, документальный, BDRip 1080p] [Омикрон] Вертикальная анаморфная стереопара

 
Автор Сообщение

brother225

post 04-Окт-17 22:19

pic
Покорение небес с Дэвидом Аттенборо / David Attenborough's Conquest of the Skies
1-4 серии из 4

Год выпуска: 2014
Страна: Великобритания
Жанр: документальный
Продолжительность: 4x~00:53:00
Субтитры: отсутствуют
Перевод: Профессиональный (одноголосый закадровый) (студия «Омикрон»)
Рассказчик : Дэвид Аттенборо
Режиссёр: David Lee
Описание: Способность летать является одним из величайших достижений природы. В наши дни более ста миллиардов существ парят в небе: начиная от крошечной, питающейся нектаром колибри до защищённых бронёй жуков, причудливых крылатых ящериц и летучих мышей и птиц.
В этом сериале Дэвид Аттенборо путешествует во времени, чтобы разгадать удивительную историю летающих животных длиною в 300 миллионов лет. Он узнает кто были первые летающие существа, как они развивались, и как смогли эволюционировать в огромное количество разнообразных видов.
Качество: BDRip 1080p
Формат: MKV
Формат 3D: Вертикальная анаморфная стереопара
Порядок ракурсов: левый ракурс первый
Видео кодек:AVC
Аудио кодек: DTS
Видео: AVC, 1920х1080, 23.976 fps, 11000 Kb/s, 0.221 bpp
Аудио: Русский A_DTS, 6 ch, 48 KHz, 1 509 Kb/s
MediaInfo
Complete name : Z:\Conquest.of.the.Skies\Conquest.of.the.Skies 3D-TAB 1080p.mkv
Format : Matroska
Format version : Version 4 / Version 2
File size : 4.66 GiB
Duration : 53 min 16 s
Overall bit rate : 12.5 Mb/s
Encoded date : UTC 2017-10-04 15:46:33
Writing application : mkvmerge v16.0.0 ('Protest') 64-bit
Writing library : libebml v1.3.5 + libmatroska v1.4.8

Video
ID : 1
Format : AVC
Format/Info : Advanced Video Codec
Format profile : [email protected]
MultiView_Count : 2
MultiView_Layout : Top-Bottom (left eye first)
Format settings : CABAC / 4 Ref Frames
Format settings, CABAC : Yes
Format settings, RefFrames : 4 frames
Codec ID : V_MPEG4/ISO/AVC
Duration : 53 min 16 s
Bit rate : 11.0 Mb/s
Width : 1 920 pixels
Height : 1 080 pixels
Display aspect ratio : 16:9
Frame rate mode : Constant
Frame rate : 23.976 (24000/1001) FPS
Color space : YUV
Chroma subsampling : 4:2:0
Bit depth : 8 bits
Scan type : Progressive
Bits/(Pixel*Frame) : 0.221
Stream size : 4.09 GiB (88%)
Title : 3D Half-T&B (x264 [email protected] 2-pass 11000 Kbps)
Writing library : x264 core 148 r2762 90a61ec
Encoding settings : cabac=1 / ref=4 / deblock=1:-2:-1 / analyse=0x3:0x133 / me=umh / subme=10 / psy=1 / psy_rd=1.00:0.20 / mixed_ref=1 / me_range=24 / chroma_me=1 / trellis=2 / 8x8dct=1 / cqm=0 / deadzone=21,11 / fast_pskip=0 / chroma_qp_offset=-3 / threads=24 / lookahead_threads=2 / sliced_threads=0 / nr=0 / decimate=0 / interlaced=0 / bluray_compat=0 / constrained_intra=0 / bframes=6 / b_pyramid=2 / b_adapt=2 / b_bias=0 / direct=3 / weightb=1 / open_gop=0 / weightp=2 / keyint=250 / keyint_min=23 / scenecut=40 / intra_refresh=0 / rc_lookahead=60 / rc=2pass / mbtree=1 / bitrate=11000 / ratetol=1.0 / qcomp=0.60 / qpmin=0 / qpmax=69 / qpstep=4 / cplxblur=20.0 / qblur=0.5 / vbv_maxrate=62500 / vbv_bufsize=78125 / nal_hrd=none / filler=0 / frame-packing=4 / ip_ratio=1.40 / aq=1:1.00
Default : Yes
Forced : No
Color range : Limited
Matrix coefficients : BT.709

Audio
ID : 2
Format : DTS
Format/Info : Digital Theater Systems
Mode : 16
Format settings, Endianness : Big
Codec ID : A_DTS
Duration : 53 min 16 s
Bit rate mode : Constant
Bit rate : 1 509 kb/s
Channel(s) : 6 channels
Channel positions : Front: L C R, Side: L R, LFE
Sampling rate : 48.0 kHz
Frame rate : 93.750 FPS (512 SPF)
Bit depth : 16 bits
Compression mode : Lossy
Stream size : 575 MiB (12%)
Default : Yes
Forced : No

Menu
00:00:00.000 : :1 - 0:00:00
00:05:00.000 : :2 - 0:05:00
00:10:00.000 : :3 - 0:10:00
00:15:00.000 : :4 - 0:15:00
00:20:00.000 : :5 - 0:20:00
00:25:00.000 : :6 - 0:25:00
00:30:00.000 : :7 - 0:30:00
00:35:00.000 : :8 - 0:35:00
00:40:00.000 : :9 - 0:40:00
00:45:00.000 : :10 - 0:45:00
00:50:00.000 : :11 - 0:50:00
x264log
x264 [info]: frame I:500 Avg QP:13.87 size:410896
x264 [info]: frame P:16700 Avg QP:17.24 size:147535
x264 [info]: frame B:59447 Avg QP:19.97 size: 29056
x264 [info]: consecutive B-frames: 1.5% 2.0% 6.2% 26.4% 23.3% 35.5% 5.3%
x264 [info]: SSIM Mean Y:0.9886846 (19.463db)
x264 [info]: kb/s:11002.40

encoded 76647 frames, 13.36 fps, 11002.39 kb/s
Скриншоты
Conquest.of.the.Skies.torrent
 СЕРЕБРЯНАЯ РАЗДАЧА! СКАЧАННОЕ ЗАСЧИТЫВАЕТСЯ ТОЛЬКО НАПОЛОВИНУ! 
Вечный
Трекер: Зарегистрирован

magnet ссылка

 


Скачать .torrent

86 KB

Статус: проверено (by Арт33 в 05-Окт-17 23:27)
Зарегистрирован: 05-Окт-17 17:57
Скачан: 20 раз
Размер: 17.03 GB | 
Поблагодарили:
Скачать Покорение небес с Дэвидом Аттенборо / David Attenborough's Conquest of the Skies (1-4 серии из 4) (David Lee) [2014, документальный, BDRip 1080p] [Омикрон] Вертикальная анаморфная стереопара торрент
 


Похожие раздачи

Арт33

post 04-Окт-17 22:25 (спустя 5 минут)

Ц brother225 писал(а):

[2/4]
Можно и полностью написать Серии 1-2 (4)
Ц brother225 писал(а):

3x~00:53:00
Почему три, вроде 4 серии будет.

brother225

post 04-Окт-17 22:39 (спустя 13 минут)

Арт33
4-ая это фильм о фильме и он не в 3d.Можно как бонус.Кому интересно как снимают.

Текущее время: 26-Авг 06:09

Часовой пояс: GMT + 3



Вы не можете начинать темы
Вы не можете отвечать на сообщения
Вы не можете редактировать свои сообщения
Вы не можете удалять свои сообщения
Вы не можете голосовать в опросах
Вы не можете прикреплять файлы к сообщениям
Вы не можете скачивать файлы