Loading...
Error
 

Скачать торрент Автоэлектрик с нуля. Видеокурс [Алексей Пахомов] (2015, Электрика автомобиля, PCRec) R.G. Мастер-Класс

 
Автор Сообщение

Music Listener

post 01-Окт-15 19:58

Автоэлектрик с нуля


pic
  • Год выпуска: 2015
  • Страна: Россия
  • Тематика: Электрика автомобиля
  • Тип материала: Обучающее видео
  • Продолжительность: 12:28:07
  • Автор: Алексей Пахомов
  • Язык: Русский
    Описание:
    Наша Школа автодиагностики создала новый продукт — видеокурс "Автоэлектик с нуля". Что это за курс, о чем он?

    Прежде всего, я поставил перед собой цель: из "нулевого" человека сделать мастера, обладающего всеми основными навыками автоэлектрика. Долго обдумывал, выстраивал систему, задавался вопросом, что нужно знать и какими навыками обладать. Наблюдал работу автоэлектриков на сервисе: что чаще всего им приходится делать, какие задачи решать. Какие приезжают автомобили, с какими дефектами. Вспомнил и свой собственный опыт работы автоэлектриком. Все обдумав и взвесив, написал план того, что нужно рассказать в курсе.

    В первую очередь, это базовые понятия электричества: напряжение, сопротивление, ток. Далее, обязательно нужно уметь читать электросхемы автомобилей. Чтобы объяснить, как устроена электропроводка на автомобиле, я придумал целый конструктор из реле, ламп, переключателей и предохранителей. Собрав электрическую цепь "на столе", рисовал ее схему, а затем показывал эту же цепь уже на реальной схеме автомобиля.

    Любой ремонт начинается с диагностики. Поэтому важно знать, как разобрать, сделать дефектовку и собрать обратно автомобильные генератор и стартер. Нужно понимать работу аккумулятора, уметь оценить его состояние, обслужить и зарядить.

    Электрик пользуется в работе тестерами. Я подробно рассказал о цифровом и аналоговом тестерах, показал, как выполнить ими необходимые измерения.

    Ну и самое главное: мы сняли несколько фильмов о работе на реальном сервисе. Они так и называются — "Будни автоэлектрика". Попутно в этих фильмах я расскажу несколько важных "фишек", своеобразных секретов автоэлектрика.

    Программа курса:
    01. Базовые понятия электричества
    02. Продолжаем изучать базовые понятия электричества
    03. Элементы электрических цепей. Часть 1
    04. Элементы электрических цепей. Часть 2
    05. Конструируем электрические цепи «на столе»
    06. Продолжаем конструировать электрические цепи
    07. Учимся читать электрические схемы
    08. Работаем с измерительными приборами
    09. Баланс энергии в электрооборудовании автомобиля
    10. Аккумуляторные батареи: принцип работы, конструкция, параметры
    11. Аккумуляторные батареи: диагностика и обслуживание
    12. Конструкция, диагностика и ремонт автомобильных генераторов
    13. Конструкция, разборка, дефектовка и сборка автомобильных электродвигателей
    14. Работаем с электропроводкой. Часть 1
    15. Работаем с электропроводкой. Часть 2
    16. Будни автоэлектрика. Часть 1
    17. Будни автоэлектрика. Часть 2
    18. Будни автоэлектрика. Часть 3


  • Качество: PCRec
  • Формат: MP4
  • Видео кодек: AVC
  • Аудио кодек: AAC
  • Видео: avc1, 1280x720, ~903 Kbps, 24 fps
  • Аудио: AAC, 48 KHz, 2 ch stereo, 112 Kbps

    MediaInfo

    Код:

    Общее
    Полное имя                               : D:\Мастер-Класс\Автоэлектрик с нуля (2015)\01.mp4
    Формат                                   : MPEG-4
    Профиль формата                          : Base Media
    Идентификатор кодека                     : isom
    Размер файла                             : 294 Мбайт
    Продолжительность                        : 40 м.
    Режим общего битрейта                    : Переменный
    Общий поток                              : 1019 Кбит/сек
    Программа кодирования                    : Lavf54.59.106

    Видео
    Идентификатор                            : 1
    Формат                                   : AVC
    Формат/Информация                        : Advanced Video Codec
    Профиль формата                          : [email protected]
    Параметр CABAC формата                   : Нет
    Параметр ReFrames формата                : 1 кадр
    Параметр GOP формата                     : M=1, N=12
    Идентификатор кодека                     : avc1
    Идентификатор кодека/Информация          : Advanced Video Coding
    Продолжительность                        : 40 м.
    Вид битрейта                             : Переменный
    Битрейт                                  : 903 Кбит/сек
    Максимальный битрейт                     : 1800 Кбит/сек
    Ширина                                   : 1280 пикселей
    Высота                                   : 720 пикселей
    Соотношение сторон                       : 16:9
    Режим частоты кадров                     : Постоянный
    Частота кадров                           : 25,000 кадров/сек
    Цветовое пространство                    : YUV
    Субдискретизация насыщенности            : 4:2:0
    Битовая глубина                          : 8 бит
    Тип развёртки                            : Прогрессивная
    Бит/(Пиксели*Кадры)                      : 0.039
    Размер потока                            : 261 Мбайт (89%)

    Аудио
    Идентификатор                            : 2
    Формат                                   : AAC
    Формат/Информация                        : Advanced Audio Codec
    Профиль формата                          : LC
    Идентификатор кодека                     : 40
    Продолжительность                        : 40 м.
    Вид битрейта                             : Переменный
    Битрейт                                  : 112 Кбит/сек
    Максимальный битрейт                     : 128 Кбит/сек
    Каналы                                   : 2 канала
    Расположение каналов                     : Front: L R
    Частота                                  : 48,0 КГц
    Метод сжатия                             : С потерями
    Размер потока                            : 32,2 Мбайт (11%)


Скриншоты
     
pic
[rustorka.com]Автоэлектрик с нуля (2015).torrent
 СЕРЕБРЯНАЯ РАЗДАЧА! СКАЧАННОЕ ЗАСЧИТЫВАЕТСЯ ТОЛЬКО НАПОЛОВИНУ! 
Вечный
Трекер: Зарегистрирован

magnet ссылка

 


Скачать .torrent

39 KB

Статус: проверено (by Арт33 в 01-Окт-15 20:18)
Зарегистрирован: 01-Окт-15 19:58
Скачан: 243 раза
Размер: 7.6 GB | 
Поблагодарили:
Скачать Автоэлектрик с нуля. Видеокурс [Алексей Пахомов] (2015, Электрика автомобиля, PCRec) R.G. Мастер-Класс торрент
 


Похожие раздачи

ultrafiolett

post 16-Мар-19 23:02 (спустя 3 года 5 месяцев)

Станьте на раздачу

Текущее время: 20-Апр 09:16

Часовой пояс: GMT + 3



Вы не можете начинать темы
Вы не можете отвечать на сообщения
Вы не можете редактировать свои сообщения
Вы не можете удалять свои сообщения
Вы не можете голосовать в опросах
Вы не можете прикреплять файлы к сообщениям
Вы не можете скачивать файлы