Loading...
Error
 

Скачать торрент Ведьмина служба доставки / Kiki's Delivery Service / Majo no Takkyuubin (Хаяо Миядзаки) [1989, аниме, мультфильм, фэнтези, комедия, приключения, семейный, BDRip 1080p] [DUB] [Лицензия]

 
Автор Сообщение

Roman2013

post 14-Сен-19 05:30

Ведьмина служба доставки / Kiki's Delivery Service / Majo no Takkyuubin
«Я была такой грустной, но сейчас мне лучше.»
pic

Год выпуска: 1989
Страна: Япония
Жанр: Аниме, мультфильм, фэнтези, комедия, приключения, семейный
Продолжительность: 01:43:03
Перевод: Дублированный | Лицензия | RUSCICO
Субтитры: Русские
Режиссёр: Хаяо Миядзаки
В ролях: Минами Такаяма, Рэй Сакума, Каппэи Ямагути, Кэйко Тода, Миэко Нобусава, Коити Миура, Харуко Като, Хироко Сэки, Юрико Футидзаки, Коити Ямадэра
Роли дублировали: Ольга Голованова, Ольга Шорохова, Диомид Виноградов, Дмитрий Филимонов, Елена Чебатуркина
Описание: Молодая ведьма Кики по достижении 13 лет должна прожить определённое время среди людей. Кики вместе со своим котом Дзидзи отправляется в город, где знакомится с добрым пекарем, который помогает ей начать собственное дело — экстренную службу доставки. Новая работа знакомит Кики со множеством различных людей и предоставляет возможность обрести новых друзей и совершать массу всевозможных проделок.
Качество: BDRip 1080p
Формат: MKV
Видео кодек: AVC
Аудио кодек: AC3
Видео : 1920 x 1036 / (16:9) / 10300 kbps / 23.976 fps / 0.215 bpp / 8 bit
Аудио №1: Русский, RUSCICO: AC-3 / 2.0/ 48 kHz/ 192 Kbps
Аудио №2: Английский: AC-3 / 2.0/ 48 kHz/ 192 Kbps
Аудио №3: Японский, 日本語: AC-3 / 2.0/ 48 kHz/ 384 Kbps

Рейтинг
pic
Ведьмина служба доставки (1989) Трейлер
MediaInfo
General
Unique ID : 245120689739673673407079228693664168906 (0xB8688713249BEA3ABCCEEDDD597AFBCA)
Complete name : Kiki's.Delivery.Service.1989.BDRip.1080p.Rus.Jap.mkv
Format : Matroska
Format version : Version 4
File size : 7.95 GiB
Duration : 1 h 43 min
Overall bit rate : 11.0 Mb/s
Movie name : Kiki's.Delivery.Service.1989.BDRip.1080p.Rus.Jap.mkv
Encoded date : UTC 2013-03-20 12:10:12
Writing application : mkvmerge v6.0.0 ('Coming Up For Air') built on Jan 20 2013 09:52:00
Writing library : libebml v1.3.0 + libmatroska v1.4.0

Video
ID : 1
Format : AVC
Format/Info : Advanced Video Codec
Format profile : [email protected]
Format settings : CABAC / 4 Ref Frames
Format settings, CABAC : Yes
Format settings, Reference frames : 4 frames
Codec ID : V_MPEG4/ISO/AVC
Duration : 1 h 43 min
Bit rate : 10.3 Mb/s
Width : 1 920 pixels
Height : 1 036 pixels
Display aspect ratio : 1.85:1
Frame rate mode : Constant
Frame rate : 23.976 (24000/1001) FPS
Color space : YUV
Chroma subsampling : 4:2:0
Bit depth : 8 bits
Scan type : Progressive
Bits/(Pixel*Frame) : 0.215
Stream size : 7.24 GiB (91%)
Writing library : x264 core 129 r2245 bc13772
Encoding settings : cabac=1 / ref=4 / deblock=1:0:0 / analyse=0x3:0x133 / me=umh / subme=11 / psy=1 / psy_rd=1.00:0.00 / mixed_ref=1 / me_range=64 / chroma_me=1 / trellis=2 / 8x8dct=1 / cqm=0 / deadzone=21,11 / fast_pskip=0 / chroma_qp_offset=-2 / threads=9 / lookahead_threads=1 / sliced_threads=0 / nr=0 / decimate=1 / interlaced=0 / bluray_compat=0 / constrained_intra=0 / bframes=12 / b_pyramid=2 / b_adapt=2 / b_bias=0 / direct=3 / weightb=1 / open_gop=0 / weightp=2 / keyint=240 / keyint_min=23 / scenecut=40 / intra_refresh=0 / rc_lookahead=60 / rc=2pass / mbtree=1 / bitrate=10273 / ratetol=1.0 / qcomp=0.60 / qpmin=0 / qpmax=69 / qpstep=4 / cplxblur=20.0 / qblur=0.5 / ip_ratio=1.40 / aq=1:1.00
Language : English
Default : Yes
Forced : No

Audio #1
ID : 2
Format : AC-3
Format/Info : Audio Coding 3
Commercial name : Dolby Digital
Codec ID : A_AC3
Duration : 1 h 43 min
Bit rate mode : Constant
Bit rate : 192 kb/s
Channel(s) : 2 channels
Channel layout : L R
Sampling rate : 48.0 kHz
Frame rate : 31.250 FPS (1536 SPF)
Bit depth : 16 bits
Compression mode : Lossy
Stream size : 142 MiB (2%)
Title : Дублированный, RUSCICO
Language : Russian
Service kind : Complete Main
Default : Yes
Forced : No

Audio #2
ID : 3
Format : AC-3
Format/Info : Audio Coding 3
Commercial name : Dolby Digital
Codec ID : A_AC3
Duration : 1 h 43 min
Bit rate mode : Constant
Bit rate : 192 kb/s
Channel(s) : 2 channels
Channel layout : L R
Sampling rate : 48.0 kHz
Frame rate : 31.250 FPS (1536 SPF)
Bit depth : 16 bits
Compression mode : Lossy
Stream size : 142 MiB (2%)
Title : English
Language : English
Service kind : Complete Main
Default : No
Forced : No

Audio #3
ID : 4
Format : AC-3
Format/Info : Audio Coding 3
Commercial name : Dolby Digital
Codec ID : A_AC3
Duration : 1 h 43 min
Bit rate mode : Constant
Bit rate : 384 kb/s
Channel(s) : 2 channels
Channel layout : L R
Sampling rate : 48.0 kHz
Frame rate : 31.250 FPS (1536 SPF)
Bit depth : 16 bits
Compression mode : Lossy
Stream size : 283 MiB (3%)
Title : Japanese
Language : Japanese
Service kind : Complete Main
Default : No
Forced : No

Text
ID : 5
Format : UTF-8
Codec ID : S_TEXT/UTF8
Codec ID/Info : UTF-8 Plain Text
Title : Русские (полные)
Language : Russian
Default : Yes
Forced : No

Menu
00:05:00.000 : :Chapter 01
00:10:00.000 : :Chapter 02
00:15:00.000 : :Chapter 03
00:25:00.000 : :Chapter 04
00:35:00.000 : :Chapter 05
00:45:00.000 : :Chapter 06
00:55:00.000 : :Chapter 07
01:05:00.000 : :Chapter 08
01:15:00.000 : :Chapter 09
01:25:00.000 : :Chapter 10
01:35:00.000 : :Chapter 11
Скриншоты
Kiki's.Delivery.Service.1989.BDRip.1080p.Rus.Jap.mkv.torrent
 СЕРЕБРЯНАЯ РАЗДАЧА! СКАЧАННОЕ ЗАСЧИТЫВАЕТСЯ ТОЛЬКО НАПОЛОВИНУ! 
Вечный
Трекер: Зарегистрирован

magnet ссылка

 


Скачать .torrent

20 KB

Статус: проверено (by Snowden в 14-Сен-19 09:40)
Зарегистрирован: 14-Сен-19 05:30
Скачан: 20 раз
Размер: 7.95 GB | 
Поблагодарили:
Скачать Ведьмина служба доставки / Kiki's Delivery Service / Majo no Takkyuubin (Хаяо Миядзаки) [1989, аниме, мультфильм, фэнтези, комедия, приключения, семейный, BDRip 1080p] [DUB] [Лицензия] торрент
 


Похожие раздачи

Текущее время: 16-Сен 10:18

Часовой пояс: GMT + 3



Вы не можете начинать темы
Вы не можете отвечать на сообщения
Вы не можете редактировать свои сообщения
Вы не можете удалять свои сообщения
Вы не можете голосовать в опросах
Вы не можете прикреплять файлы к сообщениям
Вы не можете скачивать файлы