Loading...
Error
 

Скачать торрент Танковый биатлон (5 выпусков) (Константин Куц) [2013, Военно-спортивное шоу, SATRip]

 
Автор Сообщение

twiker

post 11-Окт-13 17:05

pic
Танковый биатлон [2013]

pic
Год выпуска: 2013
Страна: Россия / Россия 1 pic
Жанр: Военно-спортивное шоу
Продолжительность: 4x ~00:52:00 (Общее 04:21:32))
Перевод: Не требуется [Комментирует К. Выборнов]
Субтитры: Отсутствуют
В ролях: участники
Режиссёр: Константин Куц
Описание:
Беспрецедентные учения «Танковый биатлон» посвящены 80-летию крупнейшего в истории танкового сражения под Прохоровкой.

Лучшим танковым взводам и экипажам танковых Вооруженных сил России поставлена задача пройти маршем 18 километров, преодолевая разнообразные препятствия и поражая мишени на расстоянии более двух километров.

Качество: SATRip
Формат: AVI
Видео кодек: DivX
Аудио кодек: MP3
Видео: 704x400 (1.77:1), 25 fps, DivX 6.9.2 ~1479 kbps, 0.22 bit/pixel
Аудио: 48 kHz, MPEG Layer 3, 2 ch, ~224 kbps
Доп. информация
Добавил: [05_Tankovyj_biatlon-12.10.2013.avi] Пожалуйста, обновите торрент-файл.
Трейлер
Список выпусков
01-й выпуск. Танковый биатлон. (эфир_14.09.2013):
В этом выпуске: 80-летию крупнейшего в истории танкового сражения под Прохоровкой.
02-й выпуск. Танковый биатлон. (эфир_21.09.2013):
В этом выпуске: 80-летию крупнейшего в истории танкового сражения под Прохоровкой. Продолжение поединков: 2-й заезд.
03-й выпуск. Танковый биатлон. (эфир_28.09.2013):
В этом выпуске: 80-летию крупнейшего в истории танкового сражения под Прохоровкой. Продолжение поединков: 3-й заезд.
04-й выпуск. Танковый биатлон. (эфир_05.10.2013):
В этом выпуске: 80-летию крупнейшего в истории танкового сражения под Прохоровкой. Финал России.
05-й выпуск. Танковый биатлон. (эфир_12.10.2013):
В этом выпуске: Международный финал команды - участники: республики Беларусь, Армении, Казахстана и России.
MediaInfo

Код:

General
Complete name                            : 01_Tankovyj_biatlon-14.09.2013.avi
Format                                   : AVI
Format/Info                              : Audio Video Interleave
File size                                : 643 MiB
Duration                                 : 52mn 28s
Overall bit rate                         : 1 713 Kbps
Writing application                      : VirtualDubMod 1.6.0.0 SURROUND (build 2560/release)
Writing library                          : VirtualDubMod build 2560/release

Video
ID                                       : 0
Format                                   : MPEG-4 Visual
Format settings, BVOP                    : 1
Format settings, QPel                    : No
Format settings, GMC                     : No warppoints
Format settings, Matrix                  : Default (H.263)
Muxing mode                              : Packed bitstream
Codec ID                                 : DX50
Codec ID/Hint                            : DivX 5
Duration                                 : 52mn 28s
Bit rate                                 : 1 479 Kbps
Width                                    : 704 pixels
Height                                   : 400 pixels
Display aspect ratio                     : 5:4
Original display aspect ratio            : 16:9
Frame rate                               : 25.000 fps
Color space                              : YUV
Chroma subsampling                       : 4:2:0
Bit depth                                : 8 bits
Scan type                                : Progressive
Compression mode                         : Lossy
Bits/(Pixel*Frame)                       : 0.210
Stream size                              : 555 MiB (86%)
Writing library                          : DivX 6.8.5 (UTC 2009-08-20)

Audio
ID                                       : 1
Format                                   : MPEG Audio
Format version                           : Version 1
Format profile                           : Layer 3
Mode                                     : Joint stereo
Mode extension                           : MS Stereo
Codec ID                                 : 55
Codec ID/Hint                            : MP3
Duration                                 : 52mn 28s
Bit rate mode                            : Constant
Bit rate                                 : 224 Kbps
Channel count                            : 2 channels
Sampling rate                            : 48.0 KHz
Compression mode                         : Lossy
Stream size                              : 84.1 MiB (13%)
Alignment                                : Split accross interleaves
Interleave, duration                     : 40 ms (1.00 video frame)
Interleave, preload duration             : 500 ms
Writing library                          : LAME3.99r
Encoding settings                        : -m j -V 4 -q 3 -lowpass 19.4 -b 224
Скриншоты
Танковый биатлон [Россия] (К.Куц) [2013,SATRip].torrent
Трекер: Зарегистрирован

magnet ссылка

 


Скачать .torrent

16 KB

Статус: проверено (by Арт33 в 21-Окт-13 20:57)
Зарегистрирован: 20-Окт-13 18:05
Скачан: 27 раз
Размер: 3.13 GB | 
Поблагодарили:
Скачать Танковый биатлон (5 выпусков) (Константин Куц) [2013, Военно-спортивное шоу, SATRip] торрент
 


Похожие раздачи

Текущее время: 26-Май 21:58

Часовой пояс: GMT + 3



Вы не можете начинать темы
Вы не можете отвечать на сообщения
Вы не можете редактировать свои сообщения
Вы не можете удалять свои сообщения
Вы не можете голосовать в опросах
Вы не можете прикреплять файлы к сообщениям
Вы не можете скачивать файлы